<?xml version="1.0" standalone="no"?>
<!DOCTYPE svg PUBLIC "-//W3C//DTD SVG 1.1//EN" "http://www.w3.org/Graphics/SVG/1.1/DTD/svg11.dtd" >
<svg xmlns="http://www.w3.org/2000/svg" xmlns:xlink="http://www.w3.org/1999/xlink" version="1.1">
<metadata>
Created by FontForge 20141024 at Tue Jan 27 11:25:05 2015
 By System Administrator
Copyright (c) 2014 by www.moslemebrahimi.com. All rights reserved.
</metadata>
<defs>
<font id="IRANSansExpanded-light" horiz-adv-x="0" >
  <font-face 
    font-family="IRAN Sans Expanded"
    font-weight="300"
    font-stretch="expanded"
    units-per-em="2048"
    panose-1="2 11 6 6 3 8 4 2 2 4"
    ascent="1638"
    descent="-410"
    x-height="1062"
    cap-height="1466"
    bbox="-713 -1255 3906.39 2316"
    underline-thickness="102"
    underline-position="-103"
    unicode-range="U+0020-FEFC"
  />
<missing-glyph horiz-adv-x="1229" 
d="M74 -1v1881h1076v-1881h-1076zM254 179h716v1521h-716v-1521z" />
    <glyph glyph-name="uni06440627.isol" unicode="&#xfedf;&#xfe8e;" horiz-adv-x="1200" arabic-form="isolated" 
d="M973 1473q1 -5 3.5 -35.5t6 -78.5t8.5 -109.5t9.5 -129t9.5 -137t8.5 -133.5t5.5 -118.5t2 -91.5q0 -45 -3.5 -107.5t-23.5 -133.5t-63.5 -145t-123.5 -142t-204 -125.5t-304 -93.5l-31 147q109 23 191 51.5t145 62.5q-6 27 -19 74t-37.5 116t-63.5 161t-96 209
q-54 112 -104.5 216t-88.5 184.5t-61.5 129t-23.5 49.5l136 65q0 -1 10.5 -23.5t29.5 -62t45 -93.5t56.5 -118t65 -135.5t70.5 -145.5q90 -185 140 -317.5t73 -214.5q50 49 77.5 101.5t40 103.5t14.5 98.5t2 88.5q0 36 -2 90.5t-6 118.5t-8.5 133.5t-9.5 137t-9.5 128.5
t-8.5 108t-6 75t-2 29z" />
    <glyph glyph-name="uni06440627.fina" unicode="&#xfee0;&#xfe8e;" horiz-adv-x="1271" arabic-form="final" 
d="M1024 478q0 -18 5.5 -49t18 -67.5t32.5 -74.5t49.5 -68.5t68.5 -50t90 -19.5v-149q-60 0 -111.5 17t-93.5 46t-74.5 67t-55.5 80q-32 -59 -83.5 -116t-129 -108t-185.5 -93.5t-252 -72.5l-29 149q108 21 190 49.5t145 62.5q-6 27 -19.5 74.5t-38 116.5t-63 160.5
t-95.5 208.5q-55 112 -105 216t-88.5 184.5t-61.5 129t-24 49.5l138 65q0 -1 23 -49.5t61 -129t88 -184t105 -215.5q90 -186 139.5 -317.5t71.5 -213.5q51 49 78.5 101t40.5 103t15 98.5t2 88.5q0 36 -2 90.5t-6 118.5t-8.5 134t-9.5 137.5t-10 128.5t-8.5 107.5t-6 74.5
t-2.5 29l150 13q1 -9 3 -45.5t5.5 -91t7 -123.5t8 -143.5t8.5 -150.5t7.5 -145t6.5 -127t5 -96z" />
    <glyph glyph-name="uni06440623.isol" unicode="&#xfedf;&#xfe84;" horiz-adv-x="1164" arabic-form="isolated" 
d="M973 1473q1 -5 3.5 -35.5t6 -78.5t8.5 -109.5t9.5 -129t9.5 -137t8.5 -133.5t5.5 -118.5t2 -91.5q0 -45 -3.5 -107.5t-23.5 -133.5t-63.5 -145t-123.5 -142t-204 -125.5t-304 -93.5l-31 147q109 23 191 51.5t145 62.5q-6 27 -19 74t-37.5 116t-63.5 161t-96 209
q-54 112 -104.5 216t-88.5 184.5t-61.5 129t-23.5 49.5l136 65q0 -1 10.5 -23.5t29.5 -62t45 -93.5t56.5 -118t65 -135.5t70.5 -145.5q90 -185 140 -317.5t73 -214.5q50 49 77.5 101.5t40 103.5t14.5 98.5t2 88.5q0 36 -2 90.5t-6 118.5t-8.5 133.5t-9.5 137t-9.5 128.5
t-8.5 108t-6 75t-2 29zM73 1394l-45 88q14 8 51.5 26.5t85.5 39.5q-10 5 -17 11.5t-12 11.5q-39 35 -54.5 81.5t-1.5 90.5q48 154 204 154q34 0 65 -10.5t55 -23.5t39.5 -24.5t18.5 -14.5l-66 -76q-6 5 -17.5 13t-27 16t-33 13.5t-34.5 5.5q-18 0 -34.5 -3.5t-30 -12.5
t-25 -25.5t-19.5 -42.5q-3 -11 3 -31t25 -38q7 -6 18.5 -13t28 -13t39 -9.5t51.5 -0.5q5 0 10 0.5t10 0.5q21 4 44 10t51 17l36 -94q-39 -16 -74 -24t-66 -11q-24 -4 -59.5 -16.5t-74.5 -29t-77 -34t-67 -32.5z" />
    <glyph glyph-name="uni06440623.fina" unicode="&#xfee0;&#xfe84;" horiz-adv-x="1270" arabic-form="final" 
d="M1024 478q0 -18 5.5 -49t18 -67.5t32.5 -74.5t49.5 -68.5t68.5 -50t90 -19.5v-149q-60 0 -111.5 17t-93.5 46t-74.5 67t-55.5 80q-32 -59 -83.5 -116t-129 -108t-185.5 -93.5t-252 -72.5l-29 149q108 21 190 49.5t145 62.5q-6 27 -19.5 74.5t-38 116.5t-63 160.5
t-95.5 208.5q-55 112 -105 216t-88.5 184.5t-61.5 129t-24 49.5l138 65q0 -1 23 -49.5t61 -129t88 -184t105 -215.5q90 -186 139.5 -317.5t71.5 -213.5q51 49 78.5 101t40.5 103t15 98.5t2 88.5q0 36 -2 90.5t-6 118.5t-8.5 134t-9.5 137.5t-10 128.5t-8.5 107.5t-6 74.5
t-2.5 29l150 13q1 -9 3 -45.5t5.5 -91t7 -123.5t8 -143.5t8.5 -150.5t7.5 -145t6.5 -127t5 -96zM78 1314l-45 88q14 8 51.5 26.5t85.5 39.5q-10 5 -17 11.5t-12 11.5q-39 35 -54.5 81.5t-1.5 90.5q48 154 204 154q34 0 65 -10.5t55 -23.5t39.5 -24.5t18.5 -14.5l-66 -76
q-6 5 -17.5 13t-27 16t-33 13.5t-34.5 5.5q-18 0 -34.5 -3.5t-30 -12.5t-25 -25.5t-19.5 -42.5q-3 -11 3 -31t25 -38q7 -6 18.5 -13t28 -13t39 -9.5t51.5 -0.5q5 0 10 0.5t10 0.5q21 4 44 10t51 17l36 -94q-39 -16 -74 -24t-66 -11q-24 -4 -59.5 -16.5t-74.5 -29t-77 -34
t-67 -32.5z" />
    <glyph glyph-name="uni06440625.isol" unicode="&#xfedf;&#xfe88;" horiz-adv-x="1202" arabic-form="isolated" 
d="M973 1473q1 -5 3.5 -35.5t6 -78.5t8.5 -109.5t9.5 -129t9.5 -137t8.5 -133.5t5.5 -118.5t2 -91.5q0 -45 -3.5 -107.5t-23.5 -133.5t-63.5 -145t-123.5 -142t-204 -125.5t-304 -93.5l-31 147q109 23 191 51.5t145 62.5q-6 27 -19 74t-37.5 116t-63.5 161t-96 209
q-54 112 -104.5 216t-88.5 184.5t-61.5 129t-23.5 49.5l136 65q0 -1 10.5 -23.5t29.5 -62t45 -93.5t56.5 -118t65 -135.5t70.5 -145.5q90 -185 140 -317.5t73 -214.5q50 49 77.5 101.5t40 103.5t14.5 98.5t2 88.5q0 36 -2 90.5t-6 118.5t-8.5 133.5t-9.5 137t-9.5 128.5
t-8.5 108t-6 75t-2 29zM735 -503l-45 88q14 8 51.5 26.5t85.5 39.5q-10 5 -17 11.5t-12 11.5q-39 35 -54.5 81.5t-1.5 90.5q48 154 204 154q34 0 65 -10.5t55 -23.5t39.5 -24.5t18.5 -14.5l-66 -76q-6 5 -17.5 13t-27 16t-33 13.5t-34.5 5.5q-18 0 -34.5 -3.5t-30 -12.5
t-25 -25.5t-19.5 -42.5q-3 -11 3 -31t25 -38q7 -6 18.5 -13t28 -13t39 -9.5t51.5 -0.5q5 0 10 0.5t10 0.5q21 4 44 10t51 17l36 -94q-39 -16 -74 -24t-66 -11q-24 -4 -59.5 -16.5t-74.5 -29t-77 -34t-67 -32.5z" />
    <glyph glyph-name="uni06440625.fina" unicode="&#xfee0;&#xfe88;" horiz-adv-x="1287" arabic-form="final" 
d="M1024 478q0 -18 5.5 -49t18 -67.5t32.5 -74.5t49.5 -68.5t68.5 -50t90 -19.5v-149q-60 0 -111.5 17t-93.5 46t-74.5 67t-55.5 80q-32 -59 -83.5 -116t-129 -108t-185.5 -93.5t-252 -72.5l-29 149q108 21 190 49.5t145 62.5q-6 27 -19.5 74.5t-38 116.5t-63 160.5
t-95.5 208.5q-55 112 -105 216t-88.5 184.5t-61.5 129t-24 49.5l138 65q0 -1 23 -49.5t61 -129t88 -184t105 -215.5q90 -186 139.5 -317.5t71.5 -213.5q51 49 78.5 101t40.5 103t15 98.5t2 88.5q0 36 -2 90.5t-6 118.5t-8.5 134t-9.5 137.5t-10 128.5t-8.5 107.5t-6 74.5
t-2.5 29l150 13q1 -9 3 -45.5t5.5 -91t7 -123.5t8 -143.5t8.5 -150.5t7.5 -145t6.5 -127t5 -96zM724 -584l-45 88q14 8 51.5 26.5t85.5 39.5q-10 5 -17 11.5t-12 11.5q-39 35 -54.5 81.5t-1.5 90.5q48 154 204 154q34 0 65 -10.5t55 -23.5t39.5 -24.5t18.5 -14.5l-66 -76
q-6 5 -17.5 13t-27 16t-33 13.5t-34.5 5.5q-18 0 -34.5 -3.5t-30 -12.5t-25 -25.5t-19.5 -42.5q-3 -11 3 -31t25 -38q7 -6 18.5 -13t28 -13t39 -9.5t51.5 -0.5q5 0 10 0.5t10 0.5q21 4 44 10t51 17l36 -94q-39 -16 -74 -24t-66 -11q-24 -4 -59.5 -16.5t-74.5 -29t-77 -34
t-67 -32.5z" />
    <glyph glyph-name="uni06440622.isol" unicode="&#xfedf;&#xfe82;" horiz-adv-x="1253" arabic-form="isolated" 
d="M1075 1473q1 -5 3.5 -35.5t6 -78.5t8.5 -109.5t9.5 -129t9.5 -137t8.5 -133.5t5.5 -118.5t2 -91.5q0 -45 -3.5 -107.5t-23.5 -133.5t-63.5 -145t-123.5 -142t-204 -125.5t-304 -93.5l-31 147q109 23 191 51.5t145 62.5q-6 27 -19 74t-37.5 116t-63.5 161t-96 209
q-54 112 -104.5 216t-88.5 184.5t-61.5 129t-23.5 49.5l136 65q0 -1 10.5 -23.5t29.5 -62t45 -93.5t56.5 -118t65 -135.5t70.5 -145.5q90 -185 140 -317.5t73 -214.5q50 49 77.5 101.5t40 103.5t14.5 98.5t2 88.5q0 36 -2 90.5t-6 118.5t-8.5 133.5t-9.5 137t-9.5 128.5
t-8.5 108t-6 75t-2 29zM392 1481q-32 0 -60 4.5t-57 9.5q-38 8 -66 11.5t-50 -3.5t-41 -29t-39 -65l-136 62q38 84 84.5 124.5t95 53.5t95.5 7.5t86 -13.5q24 -5 46 -9t42 -4q38 0 72 14t60.5 31.5t42 32t16.5 15.5l109 -104q-2 -2 -26 -23.5t-64 -47t-93.5 -46.5
t-116.5 -21z" />
    <glyph glyph-name="uni06440622.fina" unicode="&#xfee0;&#xfe82;" horiz-adv-x="1285" arabic-form="final" 
d="M1024 478q0 -18 5.5 -49t18 -67.5t32.5 -74.5t49.5 -68.5t68.5 -50t90 -19.5v-149q-60 0 -111.5 17t-93.5 46t-74.5 67t-55.5 80q-32 -59 -83.5 -116t-129 -108t-185.5 -93.5t-252 -72.5l-29 149q108 21 190 49.5t145 62.5q-6 27 -19.5 74.5t-38 116.5t-63 160.5
t-95.5 208.5q-55 112 -105 216t-88.5 184.5t-61.5 129t-24 49.5l138 65q0 -1 23 -49.5t61 -129t88 -184t105 -215.5q90 -186 139.5 -317.5t71.5 -213.5q51 49 78.5 101t40.5 103t15 98.5t2 88.5q0 36 -2 90.5t-6 118.5t-8.5 134t-9.5 137.5t-10 128.5t-8.5 107.5t-6 74.5
t-2.5 29l150 13q1 -9 3 -45.5t5.5 -91t7 -123.5t8 -143.5t8.5 -150.5t7.5 -145t6.5 -127t5 -96zM261 1383q-32 0 -60 4.5t-57 9.5q-38 8 -66 11.5t-50 -3.5t-41 -29t-39 -65l-136 62q38 84 84.5 124.5t95 53.5t95.5 7.5t86 -13.5q24 -5 46 -9t42 -4q38 0 72 14t60.5 31.5
t42 32t16.5 15.5l109 -104q-2 -2 -26 -23.5t-64 -47t-93.5 -46.5t-116.5 -21z" />
    <glyph glyph-name="uni06440671.isol" unicode="&#xfedf;&#xfb51;" horiz-adv-x="1155" 
d="M973 1473q1 -5 3.5 -35.5t6 -78.5t8.5 -109.5t9.5 -129t9.5 -137t8.5 -133.5t5.5 -118.5t2 -91.5q0 -45 -3.5 -107.5t-23.5 -133.5t-63.5 -145t-123.5 -142t-204 -125.5t-304 -93.5l-31 147q109 23 191 51.5t145 62.5q-6 27 -19 74t-37.5 116t-63.5 161t-96 209
q-54 112 -104.5 216t-88.5 184.5t-61.5 129t-23.5 49.5l136 65q0 -1 10.5 -23.5t29.5 -62t45 -93.5t56.5 -118t65 -135.5t70.5 -145.5q90 -185 140 -317.5t73 -214.5q50 49 77.5 101.5t40 103.5t14.5 98.5t2 88.5q0 36 -2 90.5t-6 118.5t-8.5 133.5t-9.5 137t-9.5 128.5
t-8.5 108t-6 75t-2 29zM127 1506q24 -3 54.5 -3.5t61.5 3.5t59.5 12.5t48.5 24.5q23 22 26 52q0 12 -5.5 22t-10.5 14q-18 20 -38 22t-36 -1q-52 -9 -93 -49q-26 -26 -43 -53.5t-24 -43.5zM-104 1473l-16 61q24 12 47 20q20 7 40.5 11.5t36.5 1.5t28.5 -9.5t20.5 -13.5
q10 -8 17 -17q9 17 29.5 51.5t54.5 67.5q26 25 58 41.5t64 21.5q38 8 70.5 -1.5t56.5 -34.5q17 -18 25.5 -39t5.5 -44q-1 -55 -47 -94q-20 -16 -44.5 -26t-51.5 -16t-54 -8t-52 -2q-26 0 -47 2t-29 3q-23 3 -45 12q-12 6 -23 14.5t-24 25.5q-14 11 -35 8t-40 -11
q-23 -10 -46 -25z" />
    <glyph glyph-name="uni06440671.fina" unicode="&#xfee0;&#xfb51;" horiz-adv-x="1285" 
d="M1024 478q0 -18 5.5 -49t18 -67.5t32.5 -74.5t49.5 -68.5t68.5 -50t90 -19.5v-149q-60 0 -111.5 17t-93.5 46t-74.5 67t-55.5 80q-32 -59 -83.5 -116t-129 -108t-185.5 -93.5t-252 -72.5l-29 149q108 21 190 49.5t145 62.5q-6 27 -19.5 74.5t-38 116.5t-63 160.5
t-95.5 208.5q-55 112 -105 216t-88.5 184.5t-61.5 129t-24 49.5l138 65q0 -1 23 -49.5t61 -129t88 -184t105 -215.5q90 -186 139.5 -317.5t71.5 -213.5q51 49 78.5 101t40.5 103t15 98.5t2 88.5q0 36 -2 90.5t-6 118.5t-8.5 134t-9.5 137.5t-10 128.5t-8.5 107.5t-6 74.5
t-2.5 29l150 13q1 -9 3 -45.5t5.5 -91t7 -123.5t8 -143.5t8.5 -150.5t7.5 -145t6.5 -127t5 -96zM93 1439q24 -3 54.5 -3.5t61.5 3.5t59.5 12.5t48.5 24.5q23 22 26 52q0 12 -5.5 22t-10.5 14q-18 20 -38 22t-36 -1q-52 -9 -93 -49q-26 -26 -43 -53.5t-24 -43.5zM-138 1406
l-16 61q24 12 47 20q20 7 40.5 11.5t36.5 1.5t28.5 -9.5t20.5 -13.5q10 -8 17 -17q9 17 29.5 51.5t54.5 67.5q26 25 58 41.5t64 21.5q38 8 70.5 -1.5t56.5 -34.5q17 -18 25.5 -39t5.5 -44q-1 -55 -47 -94q-20 -16 -44.5 -26t-51.5 -16t-54 -8t-52 -2q-26 0 -47 2t-29 3
q-23 3 -45 12q-12 6 -23 14.5t-24 25.5q-14 11 -35 8t-40 -11q-23 -10 -46 -25z" />
    <glyph glyph-name="allah" unicode="&#x627;&#xfedf;&#xfee0;&#xfeea;" horiz-adv-x="2400" arabic-form="isolated" 
d="M1695 1130q5 -24 13.5 -70.5t19.5 -107.5t22 -133.5t21.5 -148t18 -150t10 -140.5t-0.5 -120t-14 -88q-31 -93 -110 -141.5t-198 -48.5q-94 0 -171 47t-129 129q-21 -37 -50 -71q-48 -53 -111 -79t-140 -26h-10q-30 0 -66.5 7.5t-73.5 24.5t-71.5 46t-59.5 73
q-44 -22 -97 -35.5t-116 -13.5q-20 0 -41.5 2t-42.5 5q-58 10 -106 42t-77 81q-30 51 -35 107t15 110q15 41 49 82t78 78.5t93.5 70.5t95.5 60t83 46.5t57 29.5q5 52 8.5 83.5t3.5 34.5l149 -18q0 -1 -2.5 -24.5t-6 -64t-7.5 -95.5t-6.5 -117.5t-2.5 -130.5t4 -135
q3 -49 15.5 -82.5t30.5 -55.5t38.5 -34.5t39.5 -18t34.5 -7t22.5 -1.5h3q89 0 141 56q22 24 36.5 54t23.5 63t13.5 66t6.5 62q-1 8 -1 16v16v599h151v-547q0 -8 0.5 -28.5t-0.5 -51.5q4 -57 20.5 -112t45.5 -98t70.5 -69t94.5 -26q51 0 82 10.5t48.5 25t24.5 29.5t10 23
q9 27 9 83.5t-6 131t-16.5 161.5t-24 176t-28.5 174t-29 156zM320 240q40 -6 74.5 -4.5t63 8t50.5 16t38 20.5q-2 10 -3 20t-1 21q-5 78 -5 154.5t3 146.5q-49 -27 -99 -58.5t-92.5 -64t-72.5 -63.5t-40 -56q-8 -21 -6 -45t15 -44q26 -43 75 -51zM1152 1530q4 18 2.5 43
t-5.5 51t-10 49.5t-11 38.5l74 48q2 -6 10 -30.5t15 -58.5t9 -74.5t-7 -78.5zM1088 1148h-6q-30 1 -52.5 7.5t-38.5 16t-26.5 20.5t-16.5 22q-18 30 -20 64.5t3.5 65.5t15 54.5t13.5 31.5l77 -37q-6 -13 -12 -31t-9.5 -37t-3 -36.5t7.5 -29.5q6 -9 20.5 -16t32 -8.5t34 2.5
t25.5 16q14 15 21 37t9.5 46t2 46t-1.5 36q21 3 38 5q14 2 26.5 3t12.5 -1q7 -63 18 -99t23 -53.5t23.5 -21.5t21.5 -3q41 3 54 31t8 65.5t-23 76t-39 63.5l71 49q6 -9 23 -36t32 -62.5t22.5 -74.5t-3.5 -73t-28 -57.5t-37 -38t-42 -21t-43 -6.5q-23 0 -53 9.5t-56 41.5
q-22 -32 -53 -49.5t-71 -17.5zM2166 1491q3 -40 7 -117.5t9 -178.5t9 -219t6.5 -238.5t2.5 -237.5t-4 -216t-12.5 -173t-23.5 -109l-138 41q9 22 15 76.5t9 132t3.5 174t-1 203.5t-4.5 220.5t-7.5 224t-9.5 214.5t-11 193z" />
    <glyph glyph-name="riyal" unicode="&#x631;&#xfef3;&#xfe8e;&#x644;" horiz-adv-x="2821" arabic-form="isolated" 
d="M2129 -769l-65 136q1 0 23 11t57.5 32t80 51t91 69t91 85.5t79.5 100.5t56 115t21 128q0 32 -9 73.5t-23.5 86t-32.5 90.5t-36 87t-34.5 75.5t-27.5 55.5l135 70q4 -9 19 -39t35 -74t42 -98t40 -111t30 -113t12 -103q0 -113 -41.5 -210t-104.5 -177t-137 -142.5
t-139 -105.5t-110.5 -67t-51.5 -26zM1768 76q0 32 22.5 54t54.5 22h68q70 -1 114 1t70.5 11t40 28t23.5 52q6 20 4.5 54.5t-8.5 78t-19 92.5t-26 99.5t-30 98.5t-31 88l140 53q7 -19 21.5 -60t31.5 -95t33.5 -117t27 -124t12 -116.5t-10.5 -94.5q-21 -69 -55.5 -108.5
t-79.5 -60t-98.5 -25.5t-112.5 -5h-110h-5q-32 0 -54.5 21t-22.5 53zM1871 153h12v-151h-12h-21q-20 0 -48.5 2.5t-62 11.5t-68.5 26t-68 46q-59 54 -89 132.5t-30 182.5q0 67 -1.5 145t-4 160.5t-6 165.5t-6.5 159.5t-6.5 143.5t-6 116.5t-4 78.5t-1.5 30l150 16
q0 -1 3 -52t7 -133.5t9 -189t9 -218.5t6.5 -222t2.5 -200q0 -69 17 -120t51 -81q24 -23 53 -33t55 -14q30 -4 60 -2zM736 -610q-155 0 -275.5 62.5t-188.5 176.5q-32 54 -52.5 131.5t-15 180.5t45.5 234t131 292l132 -75q-61 -108 -98.5 -206.5t-52 -185.5t-4.5 -161.5
t44 -133.5q47 -78 134 -121t200 -43q128 0 225 38t162.5 99.5t98.5 140t33 159.5q0 48 -2 135t-5 196.5t-7 233t-8.5 245.5t-8.5 234t-7 198.5t-5 138.5t-2 54l150 7q1 -9 3 -65.5t5.5 -144t7.5 -199.5t8 -233t7.5 -242.5t6.5 -229.5t5 -193.5t2 -134.5q0 -71 -19.5 -142
t-57.5 -136.5t-94.5 -122t-131 -98t-166 -65.5t-200.5 -24zM1936 -274l-133 -133l-137 135l135 136zM2249 -274l-135 -133l-137 135l137 136z" />
    <glyph glyph-name="uni0621" unicode="&#x621;" horiz-adv-x="1264" arabic-form="isolated" 
d="M992 225q-41 -11 -74 -20.5t-62.5 -18.5t-59 -17.5t-64.5 -17.5q-89 -25 -184 -64t-183 -84l-68 133q10 6 30 16.5t47 23.5t59.5 27.5t68.5 29.5q-14 10 -25 18.5t-19 16.5q-58 54 -80.5 123.5t-2.5 134.5q72 231 305 231q52 0 99 -15.5t83 -34.5t59 -36.5t28 -21.5
l-99 -115q-9 8 -26.5 20.5t-40.5 24t-49.5 20t-53.5 8.5t-53.5 -7t-48.5 -22t-38 -39t-22 -58q-4 -20 4.5 -48t37.5 -56q10 -9 27 -20.5t42 -20.5t58.5 -14t76.5 -1q44 4 83 14t89 30z" />
    <glyph glyph-name="uni0627" unicode="&#x627;" horiz-adv-x="573" arabic-form="isolated" 
d="M356 1452q3 -40 7 -117.5t9 -178.5t9 -219t6.5 -238.5t2.5 -237.5t-4 -216t-12.5 -173t-23.5 -109l-138 41q9 22 15 76.5t9 132t3.5 174t-1 203.5t-4.5 220.5t-7.5 224t-9.5 214.5t-11 193z" />
    <glyph glyph-name="uni0627.fina" unicode="&#x627;" horiz-adv-x="603" arabic-form="final" 
d="M603 151h12v-151h-12h-21q-20 0 -48.5 2.5t-62 11.5t-68.5 26t-68 46q-119 110 -119 315q0 67 -1.5 145t-4 160.5t-6 165.5t-6.5 159.5t-6.5 143.5t-6 116.5t-4 78.5t-1.5 30l150 16q0 -1 3 -52t7 -133.5t9 -189t9 -218.5t6.5 -222t2.5 -200q0 -69 17 -120t51 -81
q24 -23 53 -33t55 -14q30 -4 60 -2z" />
    <glyph glyph-name="uni062D" unicode="&#x62d;" horiz-adv-x="1642" arabic-form="isolated" 
d="M1441 -492l66 -136q-138 -66 -282.5 -99.5t-284.5 -33.5q-130 0 -246 29.5t-209 87.5q-131 82 -198.5 209t-67.5 293q0 113 37 204.5t100.5 164t148 127t178.5 95t192 68t190 45.5q-78 30 -139 59.5t-112 55.5q-63 33 -110.5 53.5t-90.5 20.5q-41 0 -87 -17t-79 -44
q-32 -27 -56.5 -58t-42 -57.5t-26.5 -44.5l-9 -18l-137 64q1 2 13 25t34 57t54 73t74 74q54 45 124 71.5t138 26.5q35 0 67.5 -7t65.5 -19.5t66.5 -29t70.5 -35.5q48 -25 105 -53t130 -55t163.5 -52t204.5 -43l-10 -150q-2 0 -50.5 -2.5t-127 -11t-177.5 -26t-202.5 -47
t-202 -73.5t-176 -106.5t-124.5 -145t-47 -189.5q0 -125 49 -219.5t147 -155.5q80 -50 183.5 -73.5t219 -20.5t236.5 33t237 86z" />
    <glyph glyph-name="uni062D.init" unicode="&#x62d;" horiz-adv-x="1506" arabic-form="initial" 
d="M-76 74q0 32 22.5 54t53.5 22q137 0 274.5 23.5t265.5 60t242 81.5t204 89q30 16 65.5 33.5t72.5 35.5q-78 17 -143 36.5t-119.5 39.5t-101 39.5t-86.5 36.5q-66 30 -115 48t-94 18q-37 0 -68.5 -19t-58.5 -50t-50.5 -70t-43.5 -78l-133 69q19 36 48.5 87t72.5 98.5
t100.5 80.5t132.5 33q34 0 66.5 -6t65 -16.5t66.5 -25t72 -30.5q50 -22 110.5 -47.5t137.5 -50t173 -47.5t218 -40l22 -141q-62 -31 -124 -61q-53 -26 -112.5 -55t-107.5 -52q-96 -46 -214 -94t-252 -87t-282 -64t-304 -25q-31 0 -53.5 21t-22.5 53z" />
    <glyph glyph-name="uni062D.medi" unicode="&#x62d;" horiz-adv-x="1637" arabic-form="medial" 
d="M-75 75q0 32 22.5 54t53.5 22q141 0 274 23t252 58.5t219.5 78t177.5 81.5l67 32l139 67q-78 18 -143 38t-120 40t-101.5 39.5t-86.5 36.5q-66 29 -115 47.5t-93 18.5q-38 0 -69.5 -19t-58.5 -50t-50 -70t-44 -78l-133 68q13 24 30 56t40 65t51.5 65.5t63.5 57.5
t77.5 40.5t92.5 15.5q34 0 66.5 -6t65 -16.5t66.5 -25t72 -30.5q50 -22 110.5 -47.5t137.5 -50t173 -47.5t217 -40l23 -143q-28 -13 -61 -29q-28 -14 -63.5 -31t-73.5 -35q0 -78 39.5 -120.5t103.5 -62t143 -23t159 -3.5v-151q-37 0 -95 1.5t-123.5 9.5t-131.5 25.5
t-119.5 49.5t-86.5 82t-33 122q0 2 -0.5 0t-2.5 -3q-16 -8 -32.5 -15.5t-34.5 -16.5q-81 -41 -186.5 -85.5t-230.5 -82t-268 -62.5t-299 -25h-5q-31 0 -53.5 21t-22.5 53z" />
    <glyph glyph-name="uni062D.fina" unicode="&#x62d;" horiz-adv-x="1692" arabic-form="final" 
d="M1141 429q-81 -15 -169.5 -37t-174 -54.5t-162 -76.5t-135 -102t-92.5 -131t-34 -164q0 -254 196 -375q80 -50 183.5 -73.5t219 -20t236.5 33t237 85.5l66 -135q-139 -67 -284 -100t-283 -33q-130 0 -246 28t-209 88q-132 82 -200 209.5t-68 292.5q0 113 37.5 204.5
t101 163.5t148 127t178.5 95.5t192.5 68.5t189.5 46q-78 29 -138.5 58.5t-111.5 55.5q-63 33 -110.5 54t-92.5 21q-20 0 -42 -4.5t-44 -13t-42 -20t-36 -25.5q-32 -26 -56.5 -57t-42 -57t-27 -44t-10.5 -19l-136 65q1 2 13 24.5t34.5 56.5t54.5 73t73 74q54 45 124.5 70.5
t136.5 25.5q36 0 69 -7t65.5 -19t66 -28t70.5 -35q47 -25 104.5 -53t130.5 -55t164 -52t205 -43l-10 -150q-3 0 -55 -2t-135 -13q0 -74 19 -130t58 -93q23 -23 57 -37.5t71.5 -23t75 -12t67.5 -4.5t48.5 -0.5t19.5 0.5v-150h-15t-32 -0.5t-36 -0.5h-27q-27 0 -67.5 4
t-86 16.5t-92.5 36t-88 63.5q-60 56 -90 133.5t-32 176.5z" />
    <glyph glyph-name="uni062F" unicode="&#x62f;" horiz-adv-x="1095" arabic-form="isolated" 
d="M525 1q-90 0 -164.5 18t-128 40.5t-84 41t-33.5 20.5l87 122l24 -14t66.5 -31.5t102 -31.5t130.5 -14q161 0 249 50.5t88 144.5q0 83 -31 160.5t-77.5 144.5t-100.5 122.5t-101 95t-79 61.5t-33 23l81 126q5 -3 43.5 -29.5t93 -73.5t117 -112.5t115 -146t87.5 -174
t35 -197.5q0 -21 -4.5 -54.5t-21 -72t-48.5 -77.5t-86 -70.5t-134 -51.5t-193 -20z" />
    <glyph glyph-name="uni0631" unicode="&#x631;" horiz-adv-x="944" arabic-form="isolated" 
d="M199 -620l-65 137q1 0 23 11t57.5 32t80 51t91 69t91 85.5t79.5 100.5t56 115t21 128q0 32 -9 73.5t-23.5 86t-32.5 90t-36 87t-34.5 75.5t-27.5 56l135 70q4 -9 19 -39t35 -74.5t42 -98.5t40 -110.5t30 -112.5t12 -103q0 -113 -41.5 -210t-104.5 -177.5t-137 -142.5
t-139 -105.5t-110.5 -67t-51.5 -26.5z" />
    <glyph glyph-name="uni0631.fina" unicode="&#x631;" horiz-adv-x="1080" arabic-form="final" 
d="M1086 151v-151h-56.5t-68.5 6.5t-73 23.5t-68 51q-2 -53 -14.5 -111.5t-41 -120.5t-74.5 -126.5t-115.5 -128t-164.5 -125.5t-220 -120l-64 135q544 252 544 622q0 48 -12 101t-29 101.5t-35 87.5t-29 59l140 79q1 -2 7.5 -18.5t17 -42.5t23.5 -60t27 -70
q30 -75 72.5 -114.5t87 -56.5t84 -19t62.5 -2z" />
    <glyph glyph-name="uni0633" unicode="&#x633;" horiz-adv-x="2807" arabic-form="isolated" 
d="M2547 850q5 -12 23 -51t39 -96t39.5 -126.5t25.5 -142.5t-2.5 -143.5t-44.5 -129.5q-47 -75 -128 -113t-197 -38q-40 0 -80.5 12t-78 35t-71.5 55t-61 73q-22 -38 -52.5 -70.5t-70 -55.5t-89.5 -36t-112 -13q-55 0 -100 16t-80 41q-5 -338 -183 -512.5t-517 -174.5
q-21 0 -56.5 2t-80.5 9t-96 21t-102 37t-99 57.5t-87 83.5q-153 190 -84 508q13 62 34 128t41 121.5t34.5 92.5t16.5 40l138 -58q0 -1 -6.5 -16.5t-17 -42.5t-23 -62.5t-25.5 -75t-25 -80.5t-20 -79q-53 -249 53 -382q45 -55 107 -86t122.5 -46t109 -18.5t66.5 -3.5
q277 0 412.5 136.5t135.5 414.5q0 80 -17 156.5t-37.5 137t-38 98t-17.5 38.5l134 69q1 -2 8 -17t18 -39.5t24 -59t26 -75.5l7 2q0 -1 5.5 -18t17 -43t29.5 -55.5t43 -54.5t57.5 -42t72.5 -17q31 0 63 5t61 21t54 47.5t43.5 84.5t29 131.5t10.5 188.5h156q0 -49 -5 -100
t-8 -103q-4 -63 16 -114t52.5 -86.5t71 -55t71.5 -19.5q149 0 196 79q21 34 26 81t-0.5 99t-19 106t-30 102.5t-33.5 88.5t-29 64z" />
    <glyph glyph-name="uni0633.init" unicode="&#x633;" horiz-adv-x="1682" arabic-form="initial" 
d="M-76 74q0 32 22.5 53.5t52.5 21.5q63 0 114.5 18.5t93 48t72.5 65t53 70t35 64t18 45.5v3q1 1 1 3q9 31 17.5 61.5t14.5 54.5t9.5 39t3.5 16l147 -33q-1 -1 -4.5 -16.5t-10 -41t-15 -58t-18.5 -66.5q-9 -27 -14.5 -57.5t-5 -61.5t8 -60.5t25.5 -53.5q36 -49 104 -49
q39 0 72 15.5t60.5 41t49.5 57.5t39 65.5t29 65.5t20 57v1q8 26 17.5 64t17 73.5t12.5 60.5l5 25l148 -28l-5 -25.5t-12.5 -61t-17 -75t-18.5 -68.5q-26 -133 36 -208q28 -34 60 -47t50 -13q52 0 85.5 9t53.5 21t30 24.5t14 19.5q21 35 25.5 84t-2 103.5t-22 111.5
t-34 108.5t-37 94t-31.5 68.5l133 70q6 -12 26 -53.5t42.5 -101.5t43.5 -133t30 -148.5t0 -148.5t-45 -132q-90 -149 -312 -149q-23 0 -51.5 6t-58.5 20t-60 35.5t-56 53.5q-9 12 -18.5 26.5t-19.5 31.5q-60 -84 -135.5 -128.5t-163.5 -44.5q-70 0 -127.5 29t-98.5 83
q-9 13 -17 27.5t-15 28.5q-29 -33 -63 -61.5t-79 -49.5t-104.5 -33t-138.5 -12h-6q-30 0 -52.5 21t-22.5 53z" />
    <glyph glyph-name="uni0633.medi" unicode="&#x633;" horiz-adv-x="1875" arabic-form="medial" 
d="M-75 74q0 32 22.5 54t53.5 22q60 0 108.5 18t86 46.5t66 64t48.5 71t32.5 67t18.5 52.5q0 3 2 4q9 32 15 55t10 37q4 17 7 27l147 -29q0 -3 -7.5 -33t-27.5 -97l-1 -6q-21 -71 -17.5 -130t32.5 -98q37 -49 104 -49q44 0 80 19.5t65.5 49.5t51.5 68t38.5 75t27 69.5
t15.5 51.5q8 30 14 51t9 35q4 16 5 27l149 -23q1 6 -3 -12.5t-10.5 -46.5t-14.5 -59t-14 -50q-11 -36 -12.5 -65.5t3 -53.5t13.5 -42t19 -31q26 -34 56.5 -48.5t53.5 -14.5q44 1 84 21t75 57q56 61 82.5 153t19.5 199l152 9q4 -65 -3 -126.5t-23 -118.5q-6 -27 4.5 -61
t36.5 -65q13 -16 35 -28.5t49.5 -21t58 -13t60.5 -4.5h79v-151h-82q-100 0 -185 32.5t-133 92.5l-10 12t-9 14l-21 -24q-55 -60 -123 -92.5t-143 -34.5h-6q-62 0 -123.5 33t-104.5 89q-6 8 -12.5 18t-12.5 20q-60 -78 -133 -119.5t-158 -41.5q-70 0 -128 28t-96 82
q-19 25 -31 52q-26 -33 -56 -62.5t-71.5 -51t-98.5 -34.5t-138 -13h-5q-31 0 -53.5 21t-22.5 53z" />
    <glyph glyph-name="uni0633.fina" unicode="&#x633;" horiz-adv-x="2952" arabic-form="final" 
d="M2726 222q18 -20 43 -34t55.5 -22t65 -12t72.5 -4v-150q-114 0 -204 28t-148 99l-7 10l-15 -20q-105 -119 -279 -119q-4 0 -8 1t-9 1q-35 1 -71.5 12.5t-72 32t-68.5 49t-61 63.5l-7 9q-11 -16 -22 -31t-25 -29q-100 -106 -259 -106q-63 0 -115 19t-94 48
q-5 -336 -183 -510.5t-517 -174.5q-21 0 -56.5 2t-80 9t-95.5 21t-102 37.5t-99.5 57.5t-87.5 83q-153 189 -84 509q14 63 36.5 128t44 118.5t37.5 88.5t18 38l136 -67l-7 -15t-18.5 -40t-25 -58.5t-27.5 -71t-26.5 -77.5t-20.5 -77q-26 -123 -13 -218.5t67 -161.5
q30 -37 68 -62.5t79 -43t82 -27.5t76 -15t61 -6.5t38 -1.5q277 0 413 137t136 415q0 53 -8.5 105.5t-21 100.5t-27 89.5t-27 72.5t-21 48.5t-8.5 18.5l134 69q1 -3 10 -21.5t22 -50t28.5 -73.5t29.5 -92q3 -7 11.5 -24t23 -39.5t35.5 -46.5t47.5 -44.5t59.5 -33.5t72 -13
q94 0 150 60q54 56 78.5 162.5t16.5 246.5l151 8q2 -48 0.5 -110.5t-13.5 -130.5q-5 -29 8 -65t40 -72q35 -42 79 -70t81 -29q59 -2 102 14t75 51q25 29 41.5 68t25.5 81.5t12.5 87t3 84.5t-3.5 73.5t-6 55.5l149 24q0 -4 3.5 -31.5t6 -71.5t1 -99.5t-10.5 -114.5
q-18 -90 30 -150z" />
    <glyph glyph-name="uni0635" unicode="&#x635;" horiz-adv-x="2822" arabic-form="isolated" 
d="M2651 701q47 -49 69 -112.5t18 -134.5q-5 -83 -47.5 -163.5t-124 -143.5t-203.5 -102t-287 -39q-18 0 -52.5 1t-80.5 4t-100 8.5t-110 15.5t-112 24.5t-105 35.5v-5q0 -344 -178.5 -522.5t-521.5 -178.5q-21 0 -56.5 2t-80.5 9t-96 21t-102 37t-99 57.5t-87 83.5
q-153 190 -84 508q13 63 36.5 129.5t46 122t39.5 92.5t19 40l136 -66l-7.5 -15.5t-19.5 -42t-26 -61.5t-28.5 -74t-27.5 -79.5t-21 -77.5q-53 -248 54 -381q29 -37 67.5 -62.5t79.5 -43t82 -27.5t76 -14.5t61 -6t38 -1.5q277 0 413.5 136.5t136.5 414.5q0 53 -8.5 106
t-21.5 101t-28 90t-28.5 72.5t-22 48.5t-9.5 19l133 70q1 -3 14 -28.5t30.5 -68t36.5 -99t33 -120.5q8 -10 19 -17.5t25 -14.5q31 40 80 97t111.5 119t137 124t157.5 111t171.5 79.5t180.5 30.5q83 0 153.5 -27.5t120.5 -81.5zM2588 463q2 40 -10 74t-36 60q-29 31 -71.5 47
t-93.5 16q-86 0 -178 -40.5t-182 -106t-173 -148t-152 -167.5q46 -11 95.5 -18.5t99.5 -13t98 -8t91 -2.5q128 0 222.5 26.5t157.5 69.5t95.5 98.5t36.5 112.5z" />
    <glyph glyph-name="uni0635.init" unicode="&#x635;" horiz-adv-x="1752" arabic-form="initial" 
d="M-81 74q0 32 22.5 54t53.5 22h5q75 2 133 30.5t101 71.5t71 95t43 101q3 15 7 25.5t6 18.5q12 48 17 80t5 33l150 -14q-1 -4 -3 -19.5t-6.5 -40.5t-11.5 -57t-18 -69q-5 -28 -3.5 -66.5t26.5 -75.5l12 -14q14 18 41.5 52.5t66 77.5t86.5 92t103.5 97.5t117 93t127 78.5
t133 54t134.5 20q70 0 123.5 -23t91 -61t60 -88t30.5 -105.5t1.5 -112.5t-25.5 -109q-28 -75 -90 -136.5t-150.5 -105t-199.5 -67t-237 -23.5q-210 0 -347.5 49t-203.5 149q-1 1 -1 4q-27 -38 -64 -72t-85 -59t-108 -39.5t-133 -14.5h-5q-31 0 -53.5 21t-22.5 53zM1479 368
q16 43 18.5 92.5t-12.5 92.5t-51 73.5t-96 35.5q-62 5 -127.5 -18.5t-131 -65t-128 -95.5t-117.5 -110t-100.5 -109.5t-76.5 -92.5q111 -38 285 -38q116 0 208 20.5t159.5 53.5t110 75t59.5 86z" />
    <glyph glyph-name="uni0635.medi" unicode="&#x635;" horiz-adv-x="1762" arabic-form="medial" 
d="M-81 74q0 31 21 52.5t50 23.5h4h6h62q80 3 134.5 34t90 76.5t54.5 98.5t28 99t10.5 78.5t1.5 36.5l151 1q0 -51 -9.5 -113t-32.5 -128q-2 -62 34 -99q5 -7 10.5 -11.5t11.5 -9.5q12 18 36.5 53t60.5 80t81.5 97t99.5 103.5t114.5 99t126 84t135 58t141.5 21.5
q76 0 146 -34.5t115 -95.5q18 -25 34 -59.5t23.5 -79.5t4 -101.5t-25.5 -124.5q-16 -50 -39.5 -89.5t-54.5 -71.5q23 -1 55 -1h63.5t59 -0.5t41.5 -0.5h36v-151h-36q-26 0 -67 0.5t-89 1.5t-99 2t-97 2.5t-83 2.5t-58 1q-80 -18 -161.5 -23t-150.5 -5h-72q-14 1 -26.5 1
h-23.5q-12 0 -39.5 1t-63.5 6t-79 14.5t-86 26t-83.5 41.5t-72.5 61q-5 5 -9.5 11t-8.5 11q-54 -64 -134.5 -107t-190.5 -48h-79q-29 1 -50 22.5t-21 51.5zM1494 358q23 73 19 131.5t-33 99.5q-29 39 -68.5 54.5t-70.5 15.5q-64 0 -129.5 -26t-128.5 -68t-122.5 -96
t-110.5 -110.5t-93 -111t-71 -96.5q42 -9 82.5 -13.5t67.5 -4.5h53q92 -1 185 3t174 24v2h1q1 0 1.5 -0.5t2.5 -0.5q87 22 151 68t90 129z" />
    <glyph glyph-name="uni0635.fina" unicode="&#x635;" horiz-adv-x="2877" arabic-form="final" 
d="M2762 151h130v-151h-146q-36 1 -71.5 9.5t-67 23t-56.5 34.5t-40 46q-80 -51 -191 -81.5t-255 -30.5q-14 -1 -44.5 -3t-74.5 -2q-45 0 -100.5 3.5t-114 12.5t-117.5 25.5t-112 42.5q-2 -341 -180.5 -518.5t-519.5 -177.5q-21 0 -56.5 2t-80.5 9t-96 21t-102 37
t-99.5 57.5t-87.5 83.5q-152 190 -83 508q13 63 36.5 129.5t46 122t39.5 92.5t19 40l135 -66l-7.5 -15.5t-19 -42t-26 -61.5t-29 -74t-27 -79.5t-20.5 -77.5q-54 -248 53 -381q30 -37 68 -62.5t79 -43t82 -27.5t76 -14.5t61.5 -6t38.5 -1.5q277 0 413 136.5t136 414.5
q0 53 -8.5 106t-21.5 101t-28.5 90t-28.5 72.5t-22 48.5t-9 19l133 70q1 -3 13.5 -28t29.5 -66.5t36 -96t33 -117.5q19 -24 45 -43q30 39 79 96.5t111.5 120t137.5 124.5t158 111.5t172.5 80.5t181.5 31q82 0 152.5 -27.5t120.5 -81.5q46 -49 68.5 -112.5t18.5 -134.5
q-4 -61 -26.5 -119.5t-66.5 -112.5q5 -27 40.5 -46.5t91.5 -19.5zM2062 151q127 0 222 26.5t158 69.5t95.5 98.5t35.5 112.5q5 82 -46 136q-29 29 -71 45t-93 16q-88 0 -182 -42t-185.5 -109.5t-176 -153t-153.5 -171.5q52 -14 108.5 -21t108.5 -9.5t97 -1.5t75 4h7z" />
    <glyph glyph-name="uni0637" unicode="&#x637;" horiz-adv-x="1782" arabic-form="isolated" 
d="M1500 776q82 -60 119.5 -152.5t21.5 -199.5q-9 -62 -32.5 -122t-61.5 -111.5t-90.5 -92t-119.5 -63.5q-75 -25 -168.5 -38.5t-196 -17t-210.5 2.5t-211 19.5t-197 33.5t-170 45l36 66l35 67l191 -42q8 12 22 32.5t33.5 47t44 58t52.5 65.5q11 36 15.5 102.5t3 153.5
t-6.5 189t-13.5 208.5t-18 212t-19.5 199.5l150 16q3 -32 9.5 -88t13.5 -127.5t14 -155.5t12 -173t7.5 -179t0.5 -173q15 14 29.5 27.5t29.5 26.5q92 82 185 135t181 74t166.5 10t142.5 -56zM1493 447q9 64 -11.5 118t-68.5 87q-41 28 -95.5 32t-118.5 -16t-133.5 -62
t-139.5 -105q-47 -41 -91.5 -88.5t-84 -94t-73 -90t-57.5 -77.5q51 -8 122 -16.5t157 -8t184.5 14t204.5 48.5q51 16 87 43.5t60 61.5t38 73t20 80z" />
    <glyph glyph-name="uni0637.init" unicode="&#x637;" horiz-adv-x="1456" arabic-form="initial" 
d="M-78 75q0 32 22.5 54t53.5 22h137q4 6 22 30t44 58t57 74.5t61 79.5q12 33 16.5 97t4 148.5t-6 183.5t-13.5 202.5t-17.5 206.5t-19.5 195l150 15q3 -31 9 -84t13 -121.5t14.5 -149t12.5 -166t7.5 -172.5t0.5 -168q62 61 119 110t119.5 83.5t135.5 53t168 19.5
q39 0 79.5 -9t77 -27t67.5 -44t52 -60q25 -39 38 -84.5t14.5 -92.5t-7 -92t-26.5 -84q-56 -121 -145.5 -191.5t-205 -107t-253 -46.5t-289.5 -10q-86 0 -160 1t-146 1h-125h-5q-31 0 -53.5 21.5t-22.5 53.5zM1192 418q8 18 14 41.5t6.5 50t-5.5 54t-22 52.5q-11 17 -29 31.5
t-39 25.5t-43.5 17t-41.5 6q-78 -1 -137.5 -17.5t-114.5 -50.5t-112 -86.5t-129 -125.5q-17 -17 -43 -46.5t-55.5 -66.5t-60.5 -77t-58 -76q156 -1 294 3t250.5 29.5t195.5 80t130 155.5z" />
    <glyph glyph-name="uni0637.medi" unicode="&#x637;" horiz-adv-x="1451" arabic-form="medial" 
d="M-78 74q0 32 22.5 54.5t53.5 22.5h5h125l38 50q19 26 42 58.5t52 67.5q17 30 26 94t11.5 151t-1 192t-10.5 217t-17 226t-21 219l149 17q4 -33 10 -88t13 -126t13.5 -155t11 -173t5 -180.5t-3.5 -178.5q58 58 123 112t136.5 94.5t147.5 65t156 24.5q107 0 185.5 -51.5
t113.5 -146.5q22 -58 25 -123t-10.5 -127.5t-42.5 -117.5t-71 -92q-8 -8 -17.5 -15t-19.5 -14h289v-151h-1458h-5q-31 0 -53.5 21t-22.5 53zM1111 294q21 19 38 52.5t26 74t8 84t-15 81.5q-39 103 -159 103q-71 0 -140.5 -27.5t-135.5 -72.5t-127.5 -102.5t-115.5 -117.5
t-98.5 -117t-77.5 -101l402 -1q111 0 213.5 37.5t181.5 106.5z" />
    <glyph glyph-name="uni0637.fina" unicode="&#x637;" horiz-adv-x="1667" arabic-form="final" 
d="M1678 0q-194 0 -338.5 -0.5t-249.5 -0.5t-175 -0.5t-113 -0.5h-64h-28q-152 0 -267.5 11t-195 24.5t-122.5 25.5t-48 15l62 137q2 0 53.5 -15.5t144.5 -29.5q17 24 57.5 79t96.5 123q11 35 15.5 101t3 152t-6.5 187.5t-13.5 207.5t-18 211.5t-19.5 199.5l150 14
q3 -32 9 -87t13.5 -126t14.5 -154t12 -171t7.5 -177.5t0.5 -173.5q15 15 30 28.5t29 27.5q101 89 198 147.5t185.5 84t166 17.5t138.5 -51q40 -29 69.5 -68t47.5 -85.5t23 -99t-3 -107.5q-14 -89 -55.5 -164.5t-102.5 -130.5h293v-151zM914 149q30 1 63 2.5t70 6.5t78 16.5
t85 32.5q76 37 122.5 103.5t60.5 157.5q3 16 4 43t-5.5 57.5t-23 61t-49.5 53.5q-45 31 -106.5 25.5t-130 -35.5t-137 -77.5t-126.5 -99.5q-47 -42 -91 -88.5t-83.5 -92t-72.5 -87.5t-58 -76q34 -1 71.5 -2t79.5 -1h249z" />
    <glyph glyph-name="uni0639" unicode="&#x639;" horiz-adv-x="1486" arabic-form="isolated" 
d="M915 312q-62 -8 -131 -34t-136.5 -64.5t-129.5 -86.5t-108.5 -99.5t-74.5 -104.5t-28 -102q0 -105 43.5 -181.5t113.5 -126.5t158 -74t177 -24q102 0 194.5 17.5t163.5 39t113 39.5t43 19l65 -136q-3 -2 -25.5 -12t-61.5 -24t-92 -30.5t-116.5 -30.5t-135.5 -23t-148 -9
q-80 0 -158.5 16t-149.5 47t-132 78t-105.5 108.5t-70 138.5t-25.5 168q0 76 36 154.5t97 150.5t141 134.5t167 107.5q-23 12 -44 25t-40 27q-63 50 -96 117t-33 148q0 53 27.5 117.5t81 121t132.5 94.5t182 38q54 0 103 -11.5t91 -29.5t76.5 -38.5t59.5 -39t39 -31
t16 -14.5l-105 -106l53 53l-53 -53q-1 0 -23.5 18.5t-60.5 41t-88.5 41.5t-107.5 19q-70 0 -121 -25t-84 -60.5t-49.5 -73.5t-17.5 -64q2 -51 19 -83.5t52 -61.5q50 -39 126 -57.5t173 -16.5h21q118 3 259 39l35 -147q-92 -14 -150.5 -22.5t-92.5 -13t-48 -6t-16 -2.5z" />
    <glyph glyph-name="uni0639.init" unicode="&#x639;" horiz-adv-x="1130" arabic-form="initial" 
d="M-75 74q0 32 22.5 54.5t52.5 22.5h6q34 0 79.5 1t93.5 3t92.5 4.5t76.5 5.5q-17 11 -29.5 21t-23.5 20q-38 36 -65 77.5t-41.5 85.5t-16 88.5t11.5 85.5q98 311 409 311q48 0 93 -10.5t85 -26.5t73.5 -35t58 -35.5t39 -28t16.5 -12.5l-50 -58l-49 -56l-22.5 17.5
t-59.5 38t-85 38t-99 17.5q-37 0 -75 -6.5t-73.5 -28t-65.5 -62t-51 -108.5q-5 -16 -4.5 -37.5t8.5 -46t24 -49.5t42 -49q17 -16 48 -36t78.5 -35t112.5 -20t149 10q42 8 89 21.5t100 34.5l56 -140q-58 -22 -110 -37t-100 -24q-5 -1 -42 -8.5t-98 -17.5t-141 -21
t-169.5 -20.5t-184.5 -16t-186 -6.5q-30 0 -52.5 21t-22.5 53z" />
    <glyph glyph-name="uni0639.medi" unicode="&#x639;" horiz-adv-x="1200" arabic-form="medial" 
d="M-76 74q0 31 22 53t51 24h96q90 0 157.5 5t119 13.5t90 21t70.5 27.5q-69 64 -134 127.5t-116 115t-82.5 84.5t-34.5 36l4 108q2 1 17 13.5t42.5 30t67.5 37.5t90.5 37t111.5 28.5t132 11.5q41 0 89.5 -1t97 -8.5t93.5 -23t80 -44.5t56 -73.5t21 -109.5q0 -43 -20 -92
t-56.5 -100t-87 -101t-111.5 -95q22 -12 63.5 -21t96.5 -15t120 -9t135 -3v-151q-212 0 -349.5 29t-205.5 82q-46 -26 -94.5 -46t-112 -34.5t-148 -22.5t-202.5 -8h-96q-29 1 -51 21.5t-22 52.5zM332 622q28 -29 66 -67t81.5 -81t91.5 -88.5t96 -88.5q64 42 110.5 86
t76.5 83.5t44.5 71t14.5 49.5q0 25 -7 45.5t-35.5 35t-85.5 22t-157 7.5q-50 0 -94 -7t-81 -18t-67.5 -24.5t-53.5 -25.5z" />
    <glyph glyph-name="uni0639.fina" unicode="&#x639;" horiz-adv-x="1351" arabic-form="final" 
d="M1190 -488l64 -137q-4 -2 -34 -20t-87.5 -38.5t-142.5 -37.5t-199 -17q-120 0 -235 35.5t-205.5 106t-146 174t-55.5 240.5q0 100 39.5 179t104.5 142t149 113.5t173 92.5q-54 52 -101.5 99.5t-82.5 84t-55.5 58t-21.5 22.5v102q2 2 18 17.5t45 37.5t71 46.5t95.5 46
t117.5 35.5t139 14q256 0 360 -112q64 -71 57 -168q-5 -59 -30.5 -102.5t-65.5 -77t-90 -60.5t-103 -52q-20 -10 -40.5 -19.5t-41.5 -20.5q2 0 2 -0.5t1 -0.5l10 -10l10 -10q31 -27 67 -49t86.5 -38t119.5 -25.5t165 -11.5l16 -2v-149h-21q-109 3 -191 15.5t-144.5 33.5
t-110.5 50t-88 66l-10 8t-10 9q-14 14 -28 26.5t-28 24.5q-100 -45 -180 -90.5t-136 -95t-86 -106t-30 -123.5q0 -104 43.5 -180.5t113.5 -126.5t157.5 -74t176.5 -24q101 0 175.5 15t124 33.5t74 34t25.5 16.5zM840 757q-56 0 -105 -10t-89.5 -25t-72.5 -33.5t-55 -35.5
q21 -21 48.5 -49t60 -60.5t69 -68t74.5 -71.5q35 20 68 36.5t64 30.5q54 26 92.5 46.5t63 39.5t36.5 38.5t14 43.5q1 33 -19 55q-7 7 -22.5 18t-44.5 21t-73.5 17t-108.5 7z" />
    <glyph glyph-name="uni0643.init" unicode="&#x643;" horiz-adv-x="1106" arabic-form="initial" 
d="M-76 75q0 32 22.5 54t52.5 22h146q58 -1 110 -0.5t96 3.5t80 10.5t62 21.5q34 18 55 49.5t32 67t14.5 71t3.5 62.5q0 52 -23 109.5t-59.5 114.5t-82.5 111.5t-92.5 101.5t-89 84t-71.5 60l-37 30l36 150l844 365l60 -139l-760 -329q31 -27 75 -67t91.5 -91t94 -110
t83 -123.5t59.5 -132t23 -134.5q0 -139 -47.5 -237t-138.5 -146q-34 -17 -72.5 -27.5t-82 -16t-92 -7t-102.5 -1.5h-209h-6q-30 0 -52.5 21t-22.5 53z" />
    <glyph glyph-name="uni0643.medi" unicode="&#x643;" horiz-adv-x="1251" arabic-form="medial" 
d="M-77 75q0 32 22.5 54t53.5 22q79 0 151 2.5t129 6.5t96 9t53 11q129 58 129 209q0 60 -19.5 121t-52.5 120t-75.5 114.5t-88 106.5t-91 95t-84.5 80l-30 29l28 137l852 378l60 -137l-763 -339q98 -93 167 -173.5t115 -150t72.5 -128.5t40.5 -109q34 -97 88 -168t121 -118
t143.5 -71t155.5 -25h65v-150h-66q-165 0 -292.5 61t-222.5 178q-26 -66 -74.5 -117t-117.5 -80q-21 -10 -56 -16.5t-78 -11t-91 -7.5t-95 -4.5t-89.5 -2t-74.5 -0.5h-5q-31 0 -53.5 21t-22.5 53z" />
    <glyph glyph-name="uni0643" unicode="&#x643;" horiz-adv-x="2003" arabic-form="isolated" 
d="M1865 970q1 -16 2 -52.5t2 -85t3 -106.5t3.5 -116.5t3 -114t3.5 -100.5q3 -69 -5.5 -113.5t-22.5 -73t-31 -45.5t-32 -31v1q-23 -17 -53.5 -33t-65.5 -30t-74 -25t-78 -17q-158 -25 -326.5 -36.5t-332 1.5t-314 56t-272.5 129q-49 34 -77.5 94t-35.5 135.5t8.5 162
t54.5 173.5l133 -23q-38 -89 -52.5 -157t-9.5 -120t28.5 -91.5t62.5 -72.5q46 -40 114.5 -66.5t150 -43t172 -24t180 -9t173 1.5t151 8.5t115 12t64.5 10.5q73 18 117.5 41t68.5 44t32.5 37.5t10.5 22.5q2 12 2 55t-2 101t-4.5 124.5t-5.5 127t-5.5 106.5t-2.5 64l-18 542
l150 3zM1130 860q-12 3 -27 6q-13 2 -29.5 4.5t-35.5 2.5q-15 0 -30.5 -2.5t-31.5 -9.5v2q-32 -14 -51.5 -42.5t-19.5 -61.5q0 -17 8 -36l-1 2q7 -18 20 -33t30 -26t37 -17.5t41 -6.5q11 0 21 1t21 6q26 8 51 21.5t45 25.5q23 14 43 29l58 -79q-38 -29 -97 -62t-144 -80
l-227 -126l-48 87l179 100q-41 17 -72.5 49t-48.5 71q-14 34 -14 74q0 31 9.5 60.5t27 55t42 46t54.5 32.5q48 18 98 18q23 0 44 -3t38 -6q19 -4 38 -9z" />
    <glyph glyph-name="uni0643.fina" unicode="&#x643;" horiz-adv-x="2018" arabic-form="final" 
d="M2038 149v-149h-28q-41 0 -80.5 6.5t-75.5 20t-67 33.5t-55 48q-23 -17 -53 -33t-65 -30t-73.5 -24.5t-77.5 -16.5q-158 -25 -326.5 -36.5t-332.5 1t-315 56t-273 128.5q-48 34 -76.5 94.5t-35.5 136t8 162t54 173.5l134 -22q-38 -90 -52.5 -157.5t-10 -120t28 -92
t62.5 -73.5q46 -39 115 -65.5t151 -43t172.5 -24t179.5 -9t172.5 2t151 8.5t114.5 11.5t64 10.5q74 18 119 41t69 44t32 37.5t10 21.5q2 12 2 55t-2 101.5t-5 125t-5.5 127t-5 106.5t-2.5 63l-18 544l149 2l17 -467q0 -15 1 -49.5t2.5 -80.5t3 -100.5t3 -111t3 -111
t3 -100.5t2.5 -79.5t1 -48.5q1 -39 24.5 -62t54 -35t60 -15.5t44.5 -3.5h28zM1106 830q-12 3 -27 6q-13 2 -29.5 4.5t-35.5 2.5q-15 0 -30.5 -2.5t-30.5 -9.5v2q-32 -14 -51.5 -42.5t-19.5 -61.5q0 -8 1 -17t6 -20v2q14 -35 49.5 -58.5t77.5 -23.5q11 0 21.5 1t21.5 6
q26 8 50.5 21t44.5 25q23 14 43 29l60 -78q-39 -29 -98 -62.5t-145 -79.5l-226 -126l-48 87l179 100q-41 17 -73 49t-49 71q-13 32 -13 74q0 31 9.5 60.5t27 55t42 45.5t54.5 32q47 19 97 19q23 0 44 -3t38 -7q19 -4 38 -9z" />
    <glyph glyph-name="uni0644" unicode="&#x644;" horiz-adv-x="1476" arabic-form="isolated" 
d="M683 -597q-155 0 -275.5 62.5t-188.5 176.5q-32 54 -52.5 131.5t-15 180.5t45.5 234t131 292l132 -75q-61 -108 -98.5 -206.5t-52 -185.5t-4.5 -161.5t44 -133.5q47 -78 134 -121t200 -43q128 0 225 38t162.5 99.5t98.5 140t33 159.5q0 48 -2 135t-5 196.5t-7 233
t-8.5 245.5t-8.5 234t-7 198.5t-5 138.5t-2 54l150 7q1 -9 3 -65.5t5.5 -144t7.5 -199.5t8 -233t7.5 -242.5t6.5 -229.5t5 -193.5t2 -134.5q0 -71 -19.5 -142t-57.5 -136.5t-94.5 -122t-131 -98t-166 -65.5t-200.5 -24z" />
    <glyph glyph-name="uni0644.init" unicode="&#x644;" horiz-adv-x="678" arabic-form="initial" 
d="M-79 74q0 32 22.5 54t52.5 22h3h1q39 0 83 0.5t85 4.5t75.5 11.5t55.5 21.5q8 6 22.5 19.5t29 45t25.5 86t11 141.5q0 111 -2 222.5t-5 214t-6 191.5t-6 154.5t-5 104t-2 39.5l151 8q0 -1 2 -39.5t5 -104.5t6 -155.5t6 -193t5 -216.5t2 -225q0 -161 -38 -262t-118 -155
q-35 -24 -81.5 -36.5t-97.5 -18.5t-103.5 -7t-99.5 -1h-1h-3q-30 0 -52.5 21t-22.5 53z" />
    <glyph glyph-name="uni0644.medi" unicode="&#x644;" horiz-adv-x="743" arabic-form="medial" 
d="M-78 74q0 32 22.5 54t53.5 22q99 0 162.5 15t100 36.5t51 46t15.5 42.5q0 12 0.5 55t0.5 101.5t-0.5 125t-0.5 126.5t-0.5 106.5t-0.5 63.5l-13 543l150 3l10 -468q0 -20 1 -73t1.5 -122t1.5 -146t2 -146t1.5 -121t1.5 -72q1 -26 14.5 -45t34 -31.5t45 -20.5t47.5 -12
t42 -5.5t28 -1.5h61v-150h-61q-40 0 -84 6.5t-85.5 20t-77 34t-59.5 48.5q-28 -35 -66 -56.5t-86 -33t-106.5 -15.5t-125.5 -4h-5q-31 0 -53.5 21t-22.5 53z" />
    <glyph glyph-name="uni0644.fina" unicode="&#x644;" horiz-adv-x="1521" arabic-form="final" 
d="M1531 150v-150q-4 0 -23 1t-45 5.5t-56.5 13t-57.5 24.5q-1 1 -3 1v-53q-4 -121 -46 -224t-117 -181q-180 -182 -513 -182q-32 0 -84 5t-111 23t-119 52.5t-107 93.5q-140 171 -74 475q8 37 20.5 76t26 76.5t27.5 71t25.5 59t19 41t8.5 17.5l134 -66l-6.5 -14t-16.5 -37
t-23 -54t-25.5 -65t-23.5 -69.5t-18 -68.5q-51 -232 42 -348q33 -41 78 -64t89 -34.5t82 -14.5t56 -3q269 0 406 137q37 38 60.5 80.5t36.5 85t18 81.5t6 69q0 55 -2 144t-4.5 197.5t-6 229.5t-7 239t-6.5 226t-6 190.5t-4.5 132.5t-1.5 52l151 5q0 -9 1.5 -62t4 -136.5
t6 -190.5t7 -223t6.5 -235t6 -226q0 -131 82 -178q15 -9 33.5 -14t35 -7.5t27.5 -3t12 -0.5z" />
    <glyph glyph-name="uni0645" unicode="&#x645;" horiz-adv-x="1235" arabic-form="isolated" 
d="M164 -650q-6 163 -10.5 276.5t-7.5 188t-5 116.5l-3 63t-1.5 27.5t-0.5 10.5q-2 34 -2.5 76.5t7 85.5t27.5 82t60 65q77 50 200 19q12 28 32.5 70t48.5 88.5t62 92.5t73 83t83 60t92 23q64 0 113.5 -20.5t85.5 -54.5t60.5 -78t39.5 -91t21 -94t6 -86q0 -36 -3.5 -77.5
t-15 -81.5t-33.5 -75t-60 -58t-87 -28.5t-112.5 7t-145 44.5t-183.5 84q-53 27 -89 38.5t-58.5 14t-33 -0.5t-13.5 -5q-13 -8 -18.5 -30t-7 -48t-0.5 -52.5t2 -44.5l27 -683zM568 305q4 -2 5 -3q96 -48 163 -74.5t112 -37.5t70 -9.5t37 9.5q7 4 14 14t12.5 28.5t9 48
t3.5 72.5q0 7 -1 30t-6.5 53.5t-16 64t-30 61.5t-49 46.5t-72.5 18.5q-25 0 -57.5 -27.5t-66.5 -73t-67 -103.5t-60 -118z" />
    <glyph glyph-name="uni0645.init" unicode="&#x645;" horiz-adv-x="1147" arabic-form="initial" 
d="M-78 74q0 32 22.5 54.5t53.5 22.5h5q44 0 82.5 12.5t70 31t56 40t41.5 40t26 31l9 12.5h2l-2 1q15 21 29 48t30 56q26 51 58 108t75 105t100 79t133 31q78 0 138 -40.5t101.5 -102t62.5 -133.5t21 -135q0 -77 -10.5 -133t-28 -95.5t-40.5 -64t-47.5 -38t-48.5 -18.5
t-45 -5q-63 0 -128 20t-125 49t-111.5 62.5t-87.5 59.5q-23 -27 -54.5 -57t-75 -55.5t-100.5 -42.5t-131 -17h-5q-31 0 -53.5 21t-22.5 53zM449 296q34 -26 78.5 -54.5t94 -53t99.5 -40.5t95 -16q24 0 38 25t21 58.5t9 67.5t2 52q0 39 -12.5 84.5t-35.5 84.5t-54.5 65
t-70.5 26q-38 0 -69 -17.5t-58 -49.5t-53 -76.5t-53 -97.5q-8 -14 -15 -29t-16 -29z" />
    <glyph glyph-name="uni0645.medi" unicode="&#x645;" horiz-adv-x="1155" arabic-form="medial" 
d="M-75 74q0 32 22.5 54t53.5 22q38 0 72 12t63 30t52 39t39.5 39t25.5 30l9 12h3l-1 2q14 21 27.5 48.5t29.5 56.5q26 51 58.5 107.5t75.5 104.5t100 79t132 31q52 0 96 -19t80 -50.5t64 -73.5t46.5 -87.5t28 -92.5t9.5 -89q0 -17 -1.5 -33.5t-3.5 -32.5q0 -38 25 -64
q12 -12 28.5 -21t33.5 -15t33 -9.5t26 -3.5h22v-150h-22q-22 0 -50.5 5t-58.5 15.5t-59 26.5t-51 37q-34 -40 -79 -62t-100 -22q-61 0 -121.5 17t-115 42t-100.5 54.5t-79 53.5q-23 -27 -56 -56t-75 -53.5t-92.5 -40.5t-108.5 -17h-5q-31 0 -53.5 21t-22.5 53zM754 150
q28 0 48 15.5t33 40.5t19 57.5t6 65.5q0 39 -12.5 85t-35.5 85t-54.5 65.5t-70.5 26.5q-38 0 -69 -18t-58 -50t-53 -76.5t-53 -96.5q-8 -16 -15 -30.5t-16 -29.5q30 -21 69.5 -45.5t83 -45.5t89.5 -35t89 -14z" />
    <glyph glyph-name="uni0645.fina" unicode="&#x645;" horiz-adv-x="1302" arabic-form="final" 
d="M1309 149v-150q-31 0 -66 2.5t-69 11.5t-64 27t-51 50q-15 -17 -36 -30q-39 -24 -88 -29.5t-112.5 7t-145 44.5t-184.5 83q-53 27 -89 39t-58 14.5t-32.5 -0.5t-13.5 -5q-12 -8 -18 -30t-7.5 -48t-0.5 -52.5t2 -43.5l27 -684l-151 -6q-6 163 -10.5 276t-7.5 187.5
t-4.5 116.5t-2.5 63.5t-1 28t-1 9.5q-2 33 -2.5 76t7 86t28 82t60.5 65q77 52 198 18q13 29 33.5 71t48 88.5t61.5 93t73.5 83.5t83.5 60t91 23q64 0 113.5 -20.5t85.5 -55t60.5 -78.5t39.5 -91.5t21 -94.5t6 -86q0 -20 -0.5 -41.5t-3.5 -43.5q-1 -29 11.5 -48.5t32 -32.5
t43 -20t44 -10t34.5 -4t15 -1zM944 188q8 6 17.5 22t16.5 52q-1 1 -2 1h2q2 17 3.5 38.5t1.5 48.5q0 7 -1 30t-6.5 53.5t-16.5 64.5t-30.5 62t-49 46.5t-72.5 18.5q-25 0 -57.5 -27.5t-66 -73t-66.5 -103.5t-59 -118q1 0 4 -3q96 -48 163 -74.5t111.5 -37.5t70 -9.5
t37.5 9.5z" />
    <glyph glyph-name="uni0647" unicode="&#x647;" horiz-adv-x="983" arabic-form="isolated" 
d="M493 1q-69 0 -136 20t-120.5 59t-86.5 96t-33 132q0 72 17.5 139t43.5 124.5t55.5 104.5t53.5 80q-11 3 -16.5 5t-6.5 2l40 146q4 -1 31 -9.5t68 -25t92 -42t103.5 -60t102 -79.5t88.5 -100.5t62.5 -123t23.5 -147.5q0 -55 -15.5 -112t-57.5 -103.5t-116.5 -76
t-192.5 -29.5zM432 694q-16 -19 -43.5 -57t-54.5 -89t-46.5 -112.5t-19.5 -127.5q0 -42 23 -72t56.5 -49t73 -27.5t72.5 -8.5q63 0 107 9t71.5 29.5t40 53t12.5 79.5q0 69 -27 126.5t-69.5 103.5t-94.5 81.5t-101 60.5z" />
    <glyph glyph-name="uni0647.init" unicode="&#x647;" horiz-adv-x="1329" arabic-form="initial" 
d="M-81 75q0 32 22.5 54t52.5 22h6h92t87.5 1.5t87.5 4t91 7.5l-16 14q-37 39 -63 82.5t-42.5 86.5t-23.5 82t-6 71q2 39 13.5 78.5t31.5 77t47 71t60 60.5l-46 12l38 146q17 -5 63 -18.5t110.5 -36t141.5 -54.5t155 -73.5t150.5 -92.5t128.5 -112t90 -131.5t34 -150.5
q0 -68 -24.5 -114.5t-63 -76.5t-86.5 -46t-95.5 -23.5t-90 -9t-68.5 -1.5q-81 0 -147 13.5t-119 34.5q-63 -23 -134 -35.5t-150 -12.5q-10 -1 -44.5 -2.5t-92.5 -1.5h-109h-6q-30 0 -52.5 21t-22.5 53zM545 708q-33 0 -66 -20.5t-59.5 -52.5t-43.5 -70t-18 -72
q-1 -16 3.5 -40t15.5 -52.5t29.5 -59t45.5 -58.5q33 -37 81 -65q127 68 168 202q19 66 12 125.5t-37 101.5q-17 21 -38 36l-45 18q-11 3 -23 5t-25 2zM711 161q20 -2 41.5 -4t43.5 -2q70 0 117.5 6t78.5 16t48 23t24.5 26t9 26t1.5 24q0 40 -16 78t-44.5 73.5t-67.5 69
t-84 63.5q9 -87 -18 -182q-38 -130 -134 -217z" />
    <glyph glyph-name="uni0647.medi" unicode="&#x647;" horiz-adv-x="1092" arabic-form="medial" 
d="M-80 74q0 29 20.5 52t49.5 25h6h5h262q6 179 38 303t78.5 201t102.5 111.5t110 34.5q80 0 140 -65q24 -27 41.5 -63.5t28 -79.5t13.5 -90.5t-2 -96.5q-7 -68 -33.5 -137.5t-74.5 -126.5t-119.5 -96t-168.5 -45q14 -103 56 -186.5t95 -147.5q-11 72 0 138t46 124
q36 63 88 106t108 68.5t112 36.5t100 11h82v-151h-82q-26 0 -64 -8t-78 -25t-76.5 -45.5t-60.5 -68.5q-40 -69 -25.5 -164t81.5 -214l-4 -3q5 -3 9 -4t4 -3l-70 -133q-5 2 -38.5 22t-82.5 57.5t-106 93t-108 128.5t-88.5 165t-48.5 202h-276q-29 2 -49.5 23t-20.5 51z
M592 651q-20 -11 -48 -37.5t-55 -83t-48.5 -148t-26.5 -231.5q51 4 89 22t65.5 43t45 54.5t28 58.5t15 54t6.5 40q9 75 -10 135t-61 93z" />
    <glyph glyph-name="uni0647.fina" unicode="&#x647;" horiz-adv-x="1107" arabic-form="final" 
d="M1073 151h46v-150h-49q-68 0 -127.5 14t-108 42t-83.5 69t-52 94q-56 -32 -126 -52.5t-146 -20.5q-18 0 -36.5 1.5t-36.5 3.5q-60 10 -109 43t-80 86q-29 51 -34.5 109.5t15.5 113.5q15 42 49.5 83.5t79 79.5t95 72.5t97.5 62.5t86 49t62 32l-16 128l150 18l79 -660
q12 -55 29.5 -96t46 -68t69.5 -40.5t100 -13.5zM377 301q49 -8 95.5 -1t86 21t70 31.5t46.5 32.5l-41 339q-54 -29 -111 -64t-106 -72t-84.5 -72t-45.5 -64q-9 -23 -6.5 -48t15.5 -47q28 -48 81 -56z" />
    <glyph glyph-name="uni0648" unicode="&#x648;" horiz-adv-x="1009" arabic-form="isolated" 
d="M302 -652l-46 145q4 1 38.5 14t84.5 39.5t108 67.5t109.5 97.5t89.5 130t48 164.5q-18 -1 -39 -1h-44h-143q-100 0 -169 30t-112 77t-62 106t-19 116q0 51 12 104.5t34.5 103t54 93t70 76t83.5 51.5t94 19q84 0 145.5 -37t104.5 -97t70.5 -135.5t43 -152.5t22 -149
t8.5 -124v-3q3 -100 -19.5 -184.5t-61.5 -154t-90.5 -126t-106 -100t-107.5 -75t-96 -52t-71.5 -31t-33.5 -12.5zM494 629q-35 0 -70.5 -26.5t-63.5 -68.5t-45.5 -94.5t-17.5 -105.5q0 -25 7 -56t29 -58t64 -45.5t111 -18.5h143h81q-3 40 -9.5 90.5t-18 103t-29 103
t-43 89.5t-59.5 63t-79 24z" />
    <glyph glyph-name="uni0648.fina" unicode="&#x648;" horiz-adv-x="990" arabic-form="final" 
d="M898 151h107v-151h-106q-7 -89 -35 -164t-69 -137.5t-91 -112.5t-102 -89t-101.5 -67.5t-89.5 -47t-66 -28t-30 -11.5l-46 143q5 2 39.5 15.5t84.5 40t108 67.5t109.5 97.5t89.5 129.5t48 164h-84h-143q-100 0 -169 30t-112 77t-62 106t-19 116q0 51 12 104.5t34.5 103
t54 93t70 76t83.5 51.5t94 19q76 0 133 -30.5t99 -80.5t70.5 -115t47 -134.5t28 -138t13.5 -126.5zM664 151h83q-3 40 -9.5 90.5t-18.5 103t-30 103t-43.5 89.5t-59.5 63t-79 24q-35 0 -70.5 -26.5t-63.5 -68.5t-45.5 -94.5t-17.5 -105.5q0 -25 7 -56t29.5 -58t64 -45.5
t110.5 -18.5h143z" />
    <glyph glyph-name="uni0649" unicode="&#x649;" horiz-adv-x="1762" arabic-form="isolated" 
d="M756 -610q-185 0 -314.5 55t-204.5 167q-216 320 66 1015l140 -56q-78 -193 -111.5 -337.5t-36.5 -249.5t17 -175t49 -113q53 -78 151.5 -117.5t243.5 -39.5q105 0 196.5 16t167 43t135 61.5t100.5 71t62.5 72t21.5 64.5q1 20 -6.5 33.5t-28 24t-57 19t-94.5 17.5
q-35 5 -75 12.5t-80 20.5t-77 32.5t-66.5 49t-49 71.5t-24.5 99q-5 64 16.5 131t60 129.5t90 117.5t106.5 94q69 50 134.5 75t123.5 33t106.5 3t84 -14t56.5 -19t24 -11l-73 -131l37 66l-37 -68q-3 2 -32.5 13.5t-79.5 14t-115.5 -14t-140.5 -70.5q-47 -33 -87 -76
t-68.5 -89t-43.5 -90.5t-12 -81.5q3 -38 18.5 -62t45.5 -39.5t75 -26t107 -19.5q50 -9 105.5 -21t102 -38t77 -70.5t29.5 -117.5q-1 -56 -30.5 -113t-83 -109.5t-128.5 -98.5t-167.5 -80t-200 -53.5t-225.5 -19.5z" />
    <glyph glyph-name="uni0649.fina" unicode="&#x649;" horiz-adv-x="1830" arabic-form="final" 
d="M1836 151v-151q-16 0 -44.5 0.5t-63.5 1t-73.5 1.5t-74 2t-64 2.5t-44.5 3.5q53 -48 86 -102.5t33 -117.5q0 -90 -56.5 -165t-158 -129t-242.5 -84t-310 -30q-314 0 -482 184q-60 66 -92 139.5t-45.5 142.5t-13.5 127.5t3 93.5q10 111 35 210t52 174.5t48.5 121
t23.5 48.5l133 -68q0 -1 -19 -42t-43 -109.5t-47.5 -158.5t-33.5 -190q-3 -27 -2.5 -73t10.5 -99.5t33.5 -110t68.5 -105.5q123 -134 371 -134q142 0 256.5 22.5t194 59.5t122.5 82.5t43 92.5q0 26 -19.5 54.5t-53.5 58t-79.5 58t-98.5 54.5t-110.5 49t-114.5 40l21 71
l19 73q1 0 43 -7.5t110.5 -18t156.5 -23.5t180 -23.5t181 -18t161 -7.5z" />
    <glyph glyph-name="uni066E.init" unicode="&#x66e;" horiz-adv-x="712" 
d="M-76 74q0 32 22.5 54.5t53.5 22.5h199q70 -1 114 1t70 11t39.5 27.5t23.5 51.5q6 20 5 54.5t-8.5 78t-19 92.5t-26 99.5t-30.5 98.5t-31 88l141 53q7 -19 21.5 -60t31 -95t33 -117t27 -124t12 -116.5t-10.5 -94.5q-21 -69 -55.5 -108.5t-79 -60t-98 -25.5t-112.5 -5h-240
h-6q-31 0 -53.5 21t-22.5 53z" />
    <glyph glyph-name="uni066E.medi" unicode="&#x66e;" horiz-adv-x="823" 
d="M-78 75q0 32 22.5 53.5t52.5 21.5q128 0 213.5 25t119.5 75q26 37 32.5 85.5t3 95.5t-14 87.5t-19.5 61.5l140 55q1 -3 10 -27.5t18 -64t14.5 -90.5t0.5 -105h1q-2 -65 41 -108q24 -25 55 -42.5t66.5 -28t75 -15t79.5 -4.5v-150q-54 0 -107.5 7t-103.5 23t-94 41.5
t-80 63.5l-9 10q-25 -39 -68 -67t-100 -45t-125 -25t-143 -8h-6q-30 0 -52.5 21.5t-22.5 53.5z" />
    <glyph glyph-name="uni066E.fina" unicode="&#x66e;" horiz-adv-x="2056" 
d="M1829 228q13 -21 44 -35.5t67 -24t71 -13.5t56 -4v-150q-6 0 -29 1t-56 5t-72 13t-78 25.5t-73 41t-57 60.5q-21 32 -30 67q-58 -43 -134.5 -81.5t-175.5 -68t-222 -46.5t-273 -17q-257 0 -425.5 62.5t-248.5 188.5q-32 50 -47 103.5t-17.5 106t4.5 102.5t19 93.5
t26.5 79.5t25.5 60l136 -65q-7 -14 -17 -39.5t-20 -58t-17 -70.5t-7 -77.5t9 -79t32 -74.5q57 -90 195.5 -136t351.5 -46q153 0 273 18.5t212 49.5t158.5 70t113 80.5t75 82t45 73t22 53.5t6.5 25l148 -25q0 -3 -3.5 -18.5t-12 -40.5t-23.5 -57t-39 -69q-49 -108 -13 -165z
" />
    <glyph glyph-name="uni066F.init" unicode="&#x66f;" horiz-adv-x="994" 
d="M-76 75q0 32 22.5 54t52.5 22h10q82 0 165 3.5t160 12t144.5 24t119.5 39t85.5 56.5t42.5 77q-45 -11 -101.5 -21.5t-116.5 -8.5q-104 2 -180 32.5t-121 88.5q-42 53 -54 123.5t7 156.5q12 53 40 104.5t70.5 92t99.5 65t128 24.5q66 0 128 -33t115 -96q44 -51 75 -114.5
t48.5 -135t20.5 -147.5t-9 -152q-12 -75 -52.5 -129t-100 -92t-132 -61.5t-149 -37t-151.5 -18t-139 -4.5h-153q-30 0 -52.5 21.5t-22.5 53.5zM509 484q32 -1 64 2.5t61.5 9.5t54.5 13t43 13q-8 79 -34.5 150t-70.5 123q-31 35 -64 54.5t-65 19.5q-45 0 -78.5 -17.5t-57 -43
t-37 -54.5t-18.5 -53q-23 -104 17 -154q24 -29 71.5 -45.5t113.5 -17.5z" />
    <glyph glyph-name="uni066F.medi" unicode="&#x66f;" horiz-adv-x="1054" 
d="M-75 74q0 32 22.5 54t52.5 22q44 0 98.5 0.5t105 0.5h91.5h58h24q-47 38 -84 86t-58 107q-16 43 -19.5 90.5t4 95.5t26.5 94t48 87q51 73 122 112t150 39q66 0 122 -24.5t100 -74.5q29 -32 50.5 -71t34.5 -83t17 -92t-1 -96q-8 -81 -43.5 -148.5t-92.5 -118.5
q13 -2 25.5 -2.5t23.5 -0.5h263v-151h-244q-24 0 -54.5 2.5t-63 8t-66 13.5t-63.5 19q-54 -21 -118.5 -32t-120.5 -11h-329h-6q-30 0 -52.5 21t-22.5 53zM739 437q7 64 -10 125t-53 100q-43 50 -110 50q-29 0 -52.5 -9t-42 -22.5t-32.5 -28.5t-23 -28q-18 -26 -30 -55
t-17 -59t-3 -59.5t11 -55.5q11 -31 30.5 -58.5t45.5 -51t56.5 -43t63.5 -35.5q67 37 113 94.5t53 135.5z" />
    <glyph glyph-name="uni066F.fina" unicode="&#x66f;" horiz-adv-x="1600" 
d="M1505 151h104v-151h-105q-19 -311 -195 -470t-502 -159q-21 0 -56.5 2t-80.5 9t-96 20.5t-102 37t-99.5 58t-87.5 83.5q-152 190 -83 509q13 62 34 128t41 121t34.5 92t16.5 41l139 -59q-1 0 -15 -34.5t-33 -87t-38.5 -115t-31.5 -119.5q-54 -249 53 -382
q30 -37 68 -62.5t79 -42.5t82 -27t76 -15t61.5 -6t38.5 -1q258 0 393.5 118.5t152.5 360.5h-223q-100 0 -169 30t-112 77t-62 106t-19 116q0 51 12 104.5t34.5 103t54 93t70 76t83.5 51.5t94 19q76 0 133 -30.5t99 -80.5t70.5 -115t46.5 -134.5t27 -138.5t13 -126zM1130 151
h224q-3 39 -9.5 89.5t-18 103t-29 103t-43 90t-59.5 63.5t-79 24q-35 0 -70.5 -26.5t-63.5 -68.5t-45.5 -95t-17.5 -105q0 -25 7 -56t29 -58t64 -45.5t111 -18.5z" />
    <glyph glyph-name="uni06C1.init" unicode="&#x6c1;" horiz-adv-x="683" arabic-form="initial" 
d="M408 -523q-56 6 -88.5 44t-32.5 88q0 85 40 175t118 193l73 -45q-86 -119 -86 -215q0 -37 26 -60.5t85 -41.5q-19 -40 -44.5 -69.5t-52 -49t-38.5 -19.5zM-76 74q0 32 22.5 54t53.5 22h171q70 -1 114 1t70 11t39.5 28t23.5 52q6 20 5 54.5t-8.5 78t-19 92.5t-26 99.5
t-30.5 98.5t-31 88l141 53q7 -19 21.5 -60t31 -95t33 -117t27 -124t12 -116.5t-10.5 -94.5q-21 -69 -55.5 -108.5t-79 -60t-98 -25.5t-112.5 -5h-212h-6q-31 0 -53.5 21t-22.5 53z" />
    <glyph glyph-name="uni06C1.medi" unicode="&#x6c1;" horiz-adv-x="992" arabic-form="medial" 
d="M318 250q-18 -81 -18 -160q0 -118 47 -225.5t145 -203.5q6 33 15.5 71t21 76.5t25 75t27.5 66.5q3 7 12.5 23.5t24.5 37t37 43.5t52 42.5t67.5 33.5t83.5 18q11 1 31.5 1.5t42.5 1t42 0.5h30v-150h-55q-23 0 -52 -2t-57 -8.5t-53 -19t-41 -34.5q-30 -43 -50 -94t-32 -104
t-17 -104t-5 -93l-141 -80q-82 53 -146.5 119.5t-109.5 143.5q-36 68 -59.5 144.5t-30.5 163.5q-38 -12 -78.5 -22t-85.5 -11v151q48 1 80 6.5t49 19.5h-1q13 11 20.5 27t17.5 40q5 12 9 25t14 30zM838 -540q-27 3 -48 14t-35.5 27.5t-22.5 38t-8 44.5q0 85 36 164.5
t106 171.5l61 -37q-72 -102 -72 -191q0 -39 25 -63.5t84 -44.5q-13 -26 -31.5 -48.5t-37 -39t-35 -26t-24.5 -10.5h2z" />
    <glyph glyph-name="uni06BE" unicode="&#x6be;" horiz-adv-x="1407" arabic-form="isolated" 
d="M47 136q5 24 18 37t28.5 17.5t30.5 4t24 -3.5q21 -7 51.5 -15t68 -13.5t79.5 -6.5t85 7l-16 13q-37 39 -63 82.5t-42.5 86.5t-23.5 82t-6 71q2 39 13.5 78.5t31.5 77t47 71t60 60.5l-46 12l38 147q17 -5 63 -18.5t110.5 -36t141.5 -54.5t155 -74t150.5 -93t128.5 -111.5
t90 -131t34 -150.5q0 -68 -24.5 -114.5t-63 -77t-86.5 -46.5t-95.5 -23.5t-89.5 -9t-69 -1.5q-81 0 -147 13.5t-119 34.5q-61 -25 -129 -38t-133.5 -14t-124.5 9.5t-102 32.5q-15 8 -29 17t-24 20t-14.5 25.5t-0.5 32.5zM619 707q-33 0 -66 -21t-59.5 -52.5t-43.5 -69.5
t-18 -72q-1 -16 3.5 -40.5t15.5 -53t29.5 -59t45.5 -58.5q33 -37 81 -65q128 70 168 203q19 65 12 125t-37 101q-17 21 -38 36l-45 18q-11 3 -23 5.5t-25 2.5zM785 159q20 -2 41.5 -3.5t43.5 -1.5q70 0 117.5 6t78.5 16t48 22.5t24.5 26t9 26.5t1.5 24q0 39 -16 77
t-44.5 73.5t-67.5 69t-84 64.5q9 -87 -18 -183q-38 -130 -134 -217z" />
    <glyph glyph-name="uni06D2" unicode="&#x6d2;" horiz-adv-x="1905" arabic-form="isolated" 
d="M805 754l153 -34q-1 -6 -8 -32.5t-23 -62t-42.5 -73t-65.5 -64.5q-28 -20 -63.5 -33.5t-87.5 -31.5q-51 -17 -108.5 -38.5t-109.5 -50.5q-35 -19 -65 -43.5t-47 -45.5q15 -11 52 -24t86 -24q38 -8 85.5 -14t106.5 -10t131.5 -6t160.5 -2q105 0 207.5 10t194 24.5
t169.5 32t135 32.5t89.5 25t33.5 10l62 -148q-2 0 -22.5 -6.5t-56 -16.5t-85.5 -23t-111 -26q-56 -12 -126 -24.5t-149 -23t-165.5 -17t-175.5 -6.5q-94 0 -171.5 2t-141 6t-115.5 11t-95 16q-27 6 -67.5 19t-81.5 32.5t-75 46t-49 59.5v65q22 65 67 112t102.5 81.5
t121 59.5t123.5 46q10 3 31.5 10.5t45 16t44.5 17t30 15.5q15 10 27.5 28t22.5 37.5t17 37t9 28.5z" />
    <glyph glyph-name="uni06D2.fina" unicode="&#x6d2;" horiz-adv-x="1466" arabic-form="final" 
d="M1471 150v-150q-1 0 -42.5 -2t-108.5 -5.5t-150.5 -9t-167 -12.5t-160 -15t-128.5 -17q-36 -6 -77.5 -20t-84.5 -33t-86 -41t-81 -44t-70 -42.5t-53 -36.5q52 -22 117 -38t135.5 -27.5t143 -19t140.5 -11.5q37 -2 74 -3t72 -1q86 0 162.5 5t134 10.5t91 10.5t34.5 5
l32 -151q-4 0 -41 -5.5t-97.5 -12t-141 -11.5t-172.5 -5q-40 0 -79 1.5t-80 3.5q-191 12 -316 33.5t-200.5 44t-110.5 43t-46 30.5l-5 136q2 3 22.5 24.5t57 53t87.5 69.5t114 73.5t136.5 64.5t155.5 44q55 10 134 18t165 15t171.5 12t155 8.5t114 5.5t49.5 2z" />
    <glyph glyph-name="uni06A9" unicode="&#x6a9;" horiz-adv-x="2360" arabic-form="isolated" 
d="M1544 1050q33 -28 76.5 -68.5t89.5 -90t90 -107t79 -119.5t56.5 -127t21.5 -130q0 -89 -37 -154t-103.5 -110t-158 -73t-200 -43t-230 -20.5t-248.5 -5.5q-137 0 -245 11t-190.5 35t-142 61t-100.5 88q-37 47 -59 105.5t-28 132t3 163t34 197.5l147 -34
q-40 -177 -34.5 -291.5t55.5 -178.5q56 -71 191.5 -105t368.5 -34q182 0 314 10t223.5 28t148.5 42.5t88 53t41.5 59.5t10.5 63q0 52 -23 108.5t-59.5 112.5t-82 109.5t-92 100t-88.5 83.5t-71 59l-41 31l40 134l851 373l60 -138z" />
    <glyph glyph-name="uni06A9.fina" unicode="&#x6a9;" horiz-adv-x="2385" arabic-form="final" 
d="M1936 516q21 -73 68.5 -139.5t110 -117t134 -80t141.5 -28.5v-152q-87 0 -156.5 19t-127.5 53.5t-106.5 82t-92.5 104.5q-8 -11 -15.5 -22.5t-17.5 -23.5q-45 -53 -130 -95t-205 -71.5t-272 -45t-331 -15.5q-260 0 -432 65.5t-258 195.5q-39 59 -55.5 121.5t-18 122.5
t7 114t20 95.5t22 67t12.5 28.5l135 -65q0 -1 -7.5 -19.5t-16.5 -49.5t-16 -71t-6.5 -84.5t11.5 -90.5t38 -88q68 -100 225.5 -148.5t397.5 -41.5q633 18 765 173q25 29 35 67t0 89q-6 31 -28.5 72.5t-57 90t-78 100.5t-89.5 103.5t-93 100t-88 88.5l-28 30l29 152l823 362
l60 -138l-747 -329q27 -27 66.5 -68.5t84 -91.5t90.5 -105.5t85.5 -111t69.5 -108t42 -97.5z" />
    <glyph glyph-name="uni06AF" unicode="&#x6af;" horiz-adv-x="2380" arabic-form="isolated" 
d="M1541 1050q33 -28 76.5 -68.5t89.5 -90t90 -107t79 -119.5t56.5 -127t21.5 -130q0 -89 -37 -154t-103.5 -110t-158 -73t-200 -43t-230 -20.5t-248.5 -5.5q-137 0 -245 11t-190.5 35t-142 61t-100.5 88q-37 47 -59 105.5t-28 132t3 163t34 197.5l147 -34
q-40 -177 -34.5 -291.5t55.5 -178.5q56 -71 191.5 -105t368.5 -34q182 0 314 10t223.5 28t148.5 42.5t88 53t41.5 59.5t10.5 63q0 52 -23 108.5t-59.5 112.5t-82 109.5t-92 100t-88.5 83.5t-71 59l-41 31l40 134l851 373l60 -138zM2172 1670l-816 -347l5 96l777 331z" />
    <glyph glyph-name="uni06AF.init" unicode="&#x6af;" horiz-adv-x="1165" arabic-form="initial" 
d="M-62 75q0 32 22.5 54t52.5 22h146q58 -1 110 -0.5t96 3.5t80 10.5t62 21.5q34 18 55 49.5t32 67t14.5 71t3.5 62.5q0 52 -23 109.5t-59.5 114.5t-82.5 111.5t-92.5 101.5t-89 84t-71.5 60l-37 30l36 150l844 365l60 -139l-760 -329q31 -27 75 -67t91.5 -91t94 -110
t83 -123.5t59.5 -132t23 -134.5q0 -139 -47.5 -237t-138.5 -146q-34 -17 -72.5 -27.5t-82 -16t-92 -7t-102.5 -1.5h-209h-6q-30 0 -52.5 21t-22.5 53zM976 1686l-816 -347l5 96l777 331z" />
    <glyph glyph-name="uni06AF.medi" unicode="&#x6af;" horiz-adv-x="1246" arabic-form="medial" 
d="M-76 75q0 32 22.5 54t53.5 22q79 0 151 2.5t129 6.5t96 9t53 11q129 58 129 209q0 60 -19.5 121t-52.5 120t-75.5 114.5t-88 106.5t-91 95t-84.5 80l-30 29l28 137l852 378l60 -137l-763 -339q98 -93 167 -173.5t115 -150t72.5 -128.5t40.5 -109q34 -97 88 -168t121 -118
t143.5 -71t155.5 -25h65v-150h-66q-165 0 -292.5 61t-222.5 178q-26 -66 -74.5 -117t-117.5 -80q-21 -10 -56 -16.5t-78 -11t-91 -7.5t-95 -4.5t-89.5 -2t-74.5 -0.5h-5q-31 0 -53.5 21t-22.5 53zM944 1704l-816 -347l5 96l777 331z" />
    <glyph glyph-name="uni06AF.fina" unicode="&#x6af;" horiz-adv-x="2415" arabic-form="final" 
d="M1971 516q21 -73 68.5 -139.5t110 -117t134 -80t141.5 -28.5v-152q-87 0 -156.5 19t-127.5 53.5t-106.5 82t-92.5 104.5q-8 -11 -15.5 -22.5t-17.5 -23.5q-45 -53 -130 -95t-205 -71.5t-272 -45t-331 -15.5q-260 0 -432 65.5t-258 195.5q-39 59 -55.5 121.5t-18 122.5
t7 114t20 95.5t22 67t12.5 28.5l135 -65q0 -1 -7.5 -19.5t-16.5 -49.5t-16 -71t-6.5 -84.5t11.5 -90.5t38 -88q68 -100 225.5 -148.5t397.5 -41.5q633 18 765 173q25 29 35 67t0 89q-6 31 -28.5 72.5t-57 90t-78 100.5t-89.5 103.5t-93 100t-88 88.5l-28 30l29 152l823 362
l60 -138l-747 -329q27 -27 66.5 -68.5t84 -91.5t90.5 -105.5t85.5 -111t69.5 -108t42 -97.5zM2166 1691l-816 -347l5 96l777 331z" />
    <glyph glyph-name="uni06BA" unicode="&#x6ba;" horiz-adv-x="1617" arabic-form="isolated" 
d="M1365 624q1 -3 13 -27.5t28.5 -64t35.5 -92t35 -112t26.5 -123t10.5 -125.5q0 -346 -178 -524.5t-521 -178.5q-21 0 -56.5 2t-80.5 9t-95.5 21t-102 37t-99.5 57.5t-88 83.5q-152 190 -83 508q9 42 24 89t32.5 93.5t35 89t32.5 75.5t24.5 53.5t11.5 23.5l136 -66
q-1 0 -9.5 -18.5t-22.5 -49.5t-31 -71t-33.5 -83t-30.5 -86.5t-22 -81.5q-55 -248 54 -381q30 -37 68 -62.5t79 -42.5t82 -27t76 -15t61 -6t38 -1q277 0 413 136t136 416q0 53 -10 108.5t-24.5 108t-31.5 99.5t-32 82t-25 56t-10 22z" />
    <glyph glyph-name="uni06BA.fina" unicode="&#x6ba;" horiz-adv-x="1767" arabic-form="final" 
d="M1479 353q16 -42 42.5 -79t64 -64t85.5 -43t106 -16v-151q-32 0 -68 0.5t-71 6t-66.5 19.5t-53.5 41q-4 -336 -182 -510t-518 -174q-20 0 -55.5 2t-80 9t-95.5 21t-102 37t-99.5 57.5t-87.5 83.5q-152 190 -83 508q9 42 24 89t32 93.5t34.5 89t32 75.5t24 53.5t10.5 22.5
l134 -66l-8.5 -18.5t-22 -49t-29.5 -70.5t-32 -83t-30 -86.5t-22 -81.5q-54 -248 53 -381q30 -37 68 -62.5t79 -42.5t82 -27t75.5 -15t60.5 -6t38 -1q278 0 414.5 137t136.5 415q0 52 -9.5 107t-24 107t-31.5 98t-31.5 80.5t-24.5 55t-10 21.5l135 68q1 -3 11 -27t25 -62
t33.5 -85.5t36.5 -95.5z" />
    <glyph glyph-name="uni062F.fina" unicode="&#x62f;" horiz-adv-x="1132" arabic-form="final" 
d="M1120 150h21v-150h-21q-150 2 -246 126q-25 -23 -60.5 -45.5t-83 -40.5t-108 -29t-136.5 -11q-110 0 -185.5 22.5t-122 50t-67 51.5t-21.5 27l102 115q0 -1 18.5 -19t55.5 -39.5t92 -39.5t128 -18q73 -1 126.5 11t91 30t60 37.5t34.5 34.5l-8 20t-7 21l-270 654l138 57
l301 -728v-1q23 -49 47 -76.5t46.5 -40.5t41.5 -16t33 -3z" />
    <glyph glyph-name="uni06C1.fina" unicode="&#x6c1;" horiz-adv-x="1056" arabic-form="final" 
d="M671 289q36 -16 76.5 -39.5t88.5 -45.5t104 -37.5t124 -15.5q1 -42 1 -77t-1 -73q-75 0 -140.5 17t-121.5 41t-104 50t-87 43q-66 29 -115 46.5t-94 17.5q-38 0 -69.5 -19t-58.5 -50t-49.5 -70t-43.5 -78l-134 69q12 24 29.5 56t40.5 65.5t51.5 65.5t63.5 57t77.5 40.5
t92.5 15.5q68 0 131.5 -23t137.5 -56z" />
    <glyph glyph-name="uni0686" unicode="&#x686;" horiz-adv-x="1533" arabic-form="isolated" 
d="M1457 -485l66 -136q-138 -66 -282.5 -99.5t-284.5 -33.5q-130 0 -246 29.5t-209 87.5q-131 82 -198.5 209t-67.5 293q0 113 37 204.5t100.5 164t148 127t178.5 95t192 68t190 45.5q-78 30 -139 59.5t-112 55.5q-63 33 -110.5 53.5t-90.5 20.5q-41 0 -87 -17t-79 -44
q-32 -27 -56.5 -58t-42 -57.5t-26.5 -44.5l-9 -18l-137 64q1 2 13 25t34 57t54 73t74 74q54 45 124 71.5t138 26.5q35 0 67.5 -7t65.5 -19.5t66.5 -29t70.5 -35.5q48 -25 105 -53t130 -55t163.5 -52t204.5 -43l-10 -150q-2 0 -50.5 -2.5t-127 -11t-177.5 -26t-202.5 -47
t-202 -73.5t-176 -106.5t-124.5 -145t-47 -189.5q0 -125 49 -219.5t147 -155.5q80 -50 183.5 -73.5t219 -20.5t236.5 33t237 86zM746 135l137 -136l-136 -134l-136 135zM986 0l134 135l138 -136l-136 -134zM797 -281l136 134l136 -135l-134 -135z" />
    <glyph glyph-name="uni0686.fina" unicode="&#x686;" horiz-adv-x="1546" arabic-form="final" 
d="M1297 228q35 -34 80.5 -50.5t86 -22.5t68.5 -5l28 1v-150q-1 0 -8.5 -0.5t-24.5 -0.5q-27 0 -67.5 4t-86.5 16.5t-93 36t-88 63.5q-117 111 -122 310q-81 -15 -169.5 -37t-174 -54.5t-162 -76.5t-135 -102t-92.5 -131t-34 -164q0 -253 196 -375q80 -50 183.5 -73.5
t219 -20t236.5 33t237 85.5l66 -135q-138 -67 -283 -100t-284 -33q-130 0 -246 28t-209 88q-132 82 -199.5 209.5t-67.5 292.5q0 113 37.5 204.5t101 163.5t147.5 127t178 95.5t192.5 68.5t190.5 46q-78 29 -139 58.5t-112 55.5q-63 33 -110.5 54t-92.5 21
q-40 0 -85.5 -17.5t-78.5 -45.5q-32 -26 -56.5 -57t-42 -57t-27 -44t-9.5 -19l-136 65q1 2 13 24.5t34 56.5t54 73t74 74q27 22 58.5 40t65 30.5t68.5 19t68 6.5q36 0 69 -7t66 -19t66.5 -28t70.5 -35q47 -25 104.5 -53t130 -55t163.5 -52t205 -43l-10 -150q-3 0 -54.5 -2
t-135.5 -13q0 -74 19 -130t58 -93zM628 115l137 -136l-136 -134l-136 135zM868 -20l134 135l138 -136l-136 -134zM679 -301l136 134l136 -135l-134 -135z" />
    <glyph glyph-name="uni0623" unicode="&#x623;" horiz-adv-x="613" arabic-form="isolated" 
d="M366 1453q3 -40 7 -117.5t9 -178.5t9 -219t6.5 -238.5t2.5 -237.5t-4 -216t-12.5 -173t-23.5 -109l-138 41q9 22 15 76.5t9 132t3.5 174t-1 203.5t-4.5 220.5t-7.5 224t-9.5 214.5t-11 193zM115 1515l-45 88q14 8 51.5 26.5t85.5 39.5q-10 5 -17 11.5t-12 11.5
q-39 35 -54.5 81.5t-1.5 90.5q48 154 204 154q34 0 65 -10.5t55 -23.5t39.5 -24.5t18.5 -14.5l-66 -76q-6 5 -17.5 13t-27 16t-33 13.5t-34.5 5.5q-18 0 -34.5 -3.5t-30 -12.5t-25 -25.5t-19.5 -42.5q-3 -11 3 -31t25 -38q7 -6 18.5 -13t28 -13t39 -9.5t51.5 -0.5
q5 0 10 0.5t10 0.5q21 4 44 10t51 17l36 -94q-39 -16 -74 -24t-66 -11q-24 -4 -59.5 -16.5t-74.5 -29t-77 -34t-67 -32.5z" />
    <glyph glyph-name="uni0623.fina" unicode="&#x623;" horiz-adv-x="703" arabic-form="final" 
d="M703 151h12v-151h-12h-21q-20 0 -57 3t-80.5 12t-87 26t-76.5 46q-59 54 -89 132.5t-30 182.5q0 67 -1.5 145t-4 160.5t-6 165.5t-6.5 159.5t-6.5 143.5t-6 116.5t-4 78.5t-1.5 30l150 16q0 -1 3 -52t7 -133.5t9 -189t9 -218.5t6.5 -222t2.5 -200q0 -69 16.5 -120.5
t51.5 -80.5q23 -19 60.5 -29t73.5 -15q42 -5 88 -6zM83 1515l-45 88q14 8 51.5 26.5t85.5 39.5q-10 5 -17 11.5t-12 11.5q-39 35 -54.5 81.5t-1.5 90.5q48 154 204 154q34 0 65 -10.5t55 -23.5t39.5 -24.5t18.5 -14.5l-66 -76q-6 5 -17.5 13t-27 16t-33 13.5t-34.5 5.5
q-18 0 -34.5 -3.5t-30 -12.5t-25 -25.5t-19.5 -42.5q-3 -11 3 -31t25 -38q7 -6 18.5 -13t28 -13t39 -9.5t51.5 -0.5q5 0 10 0.5t10 0.5q21 4 44 10t51 17l36 -94q-39 -16 -74 -24t-66 -11q-24 -4 -59.5 -16.5t-74.5 -29t-77 -34t-67 -32.5z" />
    <glyph glyph-name="uni0625" unicode="&#x625;" horiz-adv-x="592" arabic-form="isolated" 
d="M346 1453q3 -40 7 -117.5t9 -178.5t9 -219t6.5 -238.5t2.5 -237.5t-4 -216t-12.5 -173t-23.5 -109l-138 41q9 22 15 76.5t9 132t3.5 174t-1 203.5t-4.5 220.5t-7.5 224t-9.5 214.5t-11 193zM109 -624l-45 88q14 8 51.5 26.5t85.5 39.5q-10 5 -17 11.5t-12 11.5
q-39 35 -54.5 81.5t-1.5 90.5q48 154 204 154q34 0 65 -10.5t55 -23.5t39.5 -24.5t18.5 -14.5l-66 -76q-6 5 -17.5 13t-27 16t-33 13.5t-34.5 5.5q-18 0 -34.5 -3.5t-30 -12.5t-25 -25.5t-19.5 -42.5q-3 -11 3 -31t25 -38q7 -6 18.5 -13t28 -13t39 -9.5t51.5 -0.5
q5 0 10 0.5t10 0.5q21 4 44 10t51 17l36 -94q-39 -16 -74 -24t-66 -11q-24 -4 -59.5 -16.5t-74.5 -29t-77 -34t-67 -32.5z" />
    <glyph glyph-name="uni0625.fina" unicode="&#x625;" horiz-adv-x="703" arabic-form="final" 
d="M703 151h12v-151h-12h-21q-20 0 -57 3t-80.5 12t-87 26t-76.5 46q-59 54 -89 132.5t-30 182.5q0 67 -1.5 145t-4 160.5t-6 165.5t-6.5 159.5t-6.5 143.5t-6 116.5t-4 78.5t-1.5 30l150 16q0 -1 3 -52t7 -133.5t9 -189t9 -218.5t6.5 -222t2.5 -200q0 -69 16.5 -120.5
t51.5 -80.5q23 -19 60.5 -29t73.5 -15q42 -5 88 -6zM206 -605l-45 88q14 8 51.5 26.5t85.5 39.5q-10 5 -17 11.5t-12 11.5q-39 35 -54.5 81.5t-1.5 90.5q48 154 204 154q34 0 65 -10.5t55 -23.5t39.5 -24.5t18.5 -14.5l-66 -76q-6 5 -17.5 13t-27 16t-33 13.5t-34.5 5.5
q-18 0 -34.5 -3.5t-30 -12.5t-25 -25.5t-19.5 -42.5q-3 -11 3 -31t25 -38q7 -6 18.5 -13t28 -13t39 -9.5t51.5 -0.5q5 0 10 0.5t10 0.5q21 4 44 10t51 17l36 -94q-39 -16 -74 -24t-66 -11q-24 -4 -59.5 -16.5t-74.5 -29t-77 -34t-67 -32.5z" />
    <glyph glyph-name="uni0622" unicode="&#x622;" horiz-adv-x="678" arabic-form="isolated" 
d="M408 1453q3 -40 7 -117.5t9 -178.5t9 -219t6.5 -238.5t2.5 -237.5t-4 -216t-12.5 -173t-23.5 -109l-138 41q9 22 15 76.5t9 132t3.5 174t-1 203.5t-4.5 220.5t-7.5 224t-9.5 214.5t-11 193zM390 1579q-32 0 -60 4.5t-57 9.5q-38 8 -66 11.5t-50 -3.5t-41 -29t-39 -65
l-136 62q38 84 84.5 124.5t95 53.5t95.5 7.5t86 -13.5q24 -5 46 -9t42 -4q38 0 72 14t60.5 31.5t42 32t16.5 15.5l109 -104q-2 -2 -26 -23.5t-64 -47t-93.5 -46.5t-116.5 -21z" />
    <glyph glyph-name="uni0622.fina" unicode="&#x622;" horiz-adv-x="703" arabic-form="final" 
d="M703 151h12v-151h-12h-21q-20 0 -57 3t-80.5 12t-87 26t-76.5 46q-59 54 -89 132.5t-30 182.5q0 67 -1.5 145t-4 160.5t-6 165.5t-6.5 159.5t-6.5 143.5t-6 116.5t-4 78.5t-1.5 30l150 16q0 -1 3 -52t7 -133.5t9 -189t9 -218.5t6.5 -222t2.5 -200q0 -69 16.5 -120.5
t51.5 -80.5q23 -19 60.5 -29t73.5 -15q42 -5 88 -6zM343 1567q-32 0 -60 4.5t-57 9.5q-38 8 -66 11.5t-50 -3.5t-41 -29t-39 -65l-136 62q38 84 84.5 124.5t95 53.5t95.5 7.5t86 -13.5q24 -5 46 -9t42 -4q38 0 72 14t60.5 31.5t42 32t16.5 15.5l109 -104q-2 -2 -26 -23.5
t-64 -47t-93.5 -46.5t-116.5 -21z" />
    <glyph glyph-name="uni0671" unicode="&#x671;" horiz-adv-x="603" arabic-form="isolated" 
d="M362 1453q3 -40 7 -117.5t9 -178.5t9 -219t6.5 -238.5t2.5 -237.5t-4 -216t-12.5 -173t-23.5 -109l-138 41q9 22 15 76.5t9 132t3.5 174t-1 203.5t-4.5 220.5t-7.5 224t-9.5 214.5t-11 193zM207 1640q24 -3 54.5 -3.5t61.5 3.5t59.5 12.5t48.5 24.5q23 22 26 52
q0 12 -5.5 22t-10.5 14q-18 20 -38 22t-36 -1q-52 -9 -93 -49q-26 -26 -43 -53.5t-24 -43.5zM-24 1607l-16 61q24 12 47 20q20 7 40.5 11.5t36.5 1.5t28.5 -9.5t20.5 -13.5q10 -8 17 -17q9 17 29.5 51.5t54.5 67.5q26 25 58 41.5t64 21.5q38 8 70.5 -1.5t56.5 -34.5
q17 -18 25.5 -39t5.5 -44q-1 -55 -47 -94q-20 -16 -44.5 -26t-51.5 -16t-54 -8t-52 -2q-26 0 -47 2t-29 3q-23 3 -45 12q-12 6 -23 14.5t-24 25.5q-14 11 -35 8t-40 -11q-23 -10 -46 -25z" />
    <glyph glyph-name="uni0671.fina" unicode="&#x671;" horiz-adv-x="708" arabic-form="final" 
d="M703 151h12v-151h-12h-21q-20 0 -57 3t-80.5 12t-87 26t-76.5 46q-59 54 -89 132.5t-30 182.5q0 67 -1.5 145t-4 160.5t-6 165.5t-6.5 159.5t-6.5 143.5t-6 116.5t-4 78.5t-1.5 30l150 16q0 -1 3 -52t7 -133.5t9 -189t9 -218.5t6.5 -222t2.5 -200q0 -69 16.5 -120.5
t51.5 -80.5q23 -19 60.5 -29t73.5 -15q42 -5 88 -6zM226 1598q24 -3 54.5 -3.5t61.5 3.5t59.5 12.5t48.5 24.5q23 22 26 52q0 12 -5.5 22t-10.5 14q-18 20 -38 22t-36 -1q-52 -9 -93 -49q-26 -26 -43 -53.5t-24 -43.5zM-5 1565l-16 61q24 12 47 20q20 7 40.5 11.5t36.5 1.5
t28.5 -9.5t20.5 -13.5q10 -8 17 -17q9 17 29.5 51.5t54.5 67.5q26 25 58 41.5t64 21.5q38 8 70.5 -1.5t56.5 -34.5q17 -18 25.5 -39t5.5 -44q-1 -55 -47 -94q-20 -16 -44.5 -26t-51.5 -16t-54 -8t-52 -2q-26 0 -47 2t-29 3q-23 3 -45 12q-12 6 -23 14.5t-24 25.5
q-14 11 -35 8t-40 -11q-23 -10 -46 -25z" />
    <glyph glyph-name="uni0628" unicode="&#x628;" horiz-adv-x="2074" arabic-form="isolated" 
d="M1780 813q22 -39 44.5 -85.5t43 -95.5t37 -98.5t27.5 -94.5q10 -42 10.5 -79.5t-12.5 -71.5t-41 -65t-76 -59q-50 -30 -120.5 -53.5t-150 -41.5t-163.5 -30.5t-161.5 -21t-143 -12t-108.5 -3.5q-38 0 -95.5 1t-125 8t-140 22t-141 42t-128 69.5t-100.5 103.5
q-138 211 11 573l138 -58q-59 -143 -64.5 -251.5t42.5 -180.5q30 -45 77 -75t103 -50t117 -30.5t118 -15.5t106 -6t82 -1q88 0 178 7.5t175 20.5t162 30.5t139.5 36.5t106.5 39.5t63 39.5q-3 48 -17.5 102.5t-36.5 109.5t-48 107.5t-51 94.5zM1189 -341l-136 -136l-136 137
l135 135z" />
    <glyph glyph-name="uni0628.init" unicode="&#x628;" horiz-adv-x="703" arabic-form="initial" 
d="M-76 74q0 32 22.5 54.5t53.5 22.5h199q70 -1 114 1t70 11t39.5 27.5t23.5 51.5q6 20 5 54.5t-8.5 78t-19 92.5t-26 99.5t-30.5 98.5t-31 88l141 53q7 -19 21.5 -60t31 -95t33 -117t27 -124t12 -116.5t-10.5 -94.5q-21 -69 -55.5 -108.5t-79 -60t-98 -25.5t-112.5 -5h-240
h-6q-31 0 -53.5 21t-22.5 53zM439 -360l-136 -136l-136 137l135 135z" />
    <glyph glyph-name="uni0628.medi" unicode="&#x628;" horiz-adv-x="833" arabic-form="medial" 
d="M-63 75q0 32 22.5 53.5t52.5 21.5q128 0 213.5 25t119.5 75q26 37 32.5 85.5t3 95.5t-14 87.5t-19.5 61.5l140 55q1 -3 10 -27.5t18 -64t14.5 -90.5t0.5 -105h1q-2 -65 41 -108q24 -25 55 -42.5t66.5 -28t75 -15t79.5 -4.5v-150q-54 0 -107.5 7t-103.5 23t-94 41.5
t-80 63.5l-9 10q-25 -39 -68 -67t-100 -45t-125 -25t-143 -8h-6q-30 0 -52.5 21.5t-22.5 53.5zM521 -341l-136 -136l-136 137l135 135z" />
    <glyph glyph-name="uni0628.fina" unicode="&#x628;" horiz-adv-x="2109" arabic-form="final" 
d="M1883 228q13 -21 44 -35.5t67 -24t71 -13.5t56 -4v-150q-6 0 -29 1t-56 5t-72 13t-78 25.5t-73 41t-57 60.5q-21 32 -30 67q-58 -43 -134.5 -81.5t-175.5 -68t-222 -46.5t-273 -17q-257 0 -425.5 62.5t-248.5 188.5q-32 50 -47 103.5t-17.5 106t4.5 102.5t19 93.5
t26.5 79.5t25.5 60l136 -65q-7 -14 -17 -39.5t-20 -58t-17 -70.5t-7 -77.5t9 -79t32 -74.5q57 -90 195.5 -136t351.5 -46q153 0 273 18.5t212 49.5t158.5 70t113 80.5t75 82t45 73t22 53.5t6.5 25l148 -25q0 -3 -3.5 -18.5t-12 -40.5t-23.5 -57t-39 -69q-49 -108 -13 -165z
M1159 -332l-136 -136l-136 137l135 135z" />
    <glyph glyph-name="uni067E" unicode="&#x67e;" horiz-adv-x="1983" arabic-form="isolated" 
d="M1728 779q22 -39 44.5 -85.5t43 -95.5t37 -98.5t27.5 -94.5q10 -42 10.5 -79.5t-12.5 -71.5t-41 -65t-76 -59q-50 -30 -120.5 -53.5t-150 -41.5t-163.5 -30.5t-161.5 -21t-143 -12t-108.5 -3.5q-38 0 -95.5 1t-125 8t-140 22t-141 42t-128 69.5t-100.5 103.5
q-138 211 11 573l138 -58q-59 -143 -64.5 -251.5t42.5 -180.5q30 -45 77 -75t103 -50t117 -30.5t118 -15.5t106 -6t82 -1q88 0 178 7.5t175 20.5t162 30.5t139.5 36.5t106.5 39.5t63 39.5q-3 48 -17.5 102.5t-36.5 109.5t-48 107.5t-51 94.5zM805 -181l137 -136l-136 -134
l-136 135zM1045 -316l134 135l138 -136l-136 -134zM856 -597l136 134l136 -135l-134 -135z" />
    <glyph glyph-name="uni067E.fina" unicode="&#x67e;" horiz-adv-x="2079" arabic-form="final" 
d="M1852 228q13 -21 44 -35.5t67 -24t71 -13.5t56 -4v-150q-6 0 -29 1t-56 5t-72 13t-78 25.5t-73 41t-57 60.5q-21 32 -30 67q-58 -43 -134.5 -81.5t-175.5 -68t-222 -46.5t-273 -17q-257 0 -425.5 62.5t-248.5 188.5q-32 50 -47 103.5t-17.5 106t4.5 102.5t19 93.5
t26.5 79.5t25.5 60l136 -65q-7 -14 -17 -39.5t-20 -58t-17 -70.5t-7 -77.5t9 -79t32 -74.5q57 -90 195.5 -136t351.5 -46q153 0 273 18.5t212 49.5t158.5 70t113 80.5t75 82t45 73t22 53.5t6.5 25l148 -25q0 -3 -3.5 -18.5t-12 -40.5t-23.5 -57t-39 -69q-49 -108 -13 -165z
M852 -181l137 -136l-136 -134l-136 135zM1092 -316l134 135l138 -136l-136 -134zM903 -597l136 134l136 -135l-134 -135z" />
    <glyph glyph-name="uni067E.init" unicode="&#x67e;" horiz-adv-x="818" arabic-form="initial" 
d="M-76 74q0 32 22.5 54t53.5 22h259q70 -1 117.5 1t78 11t47.5 28t27 52q6 20 5 54.5t-8.5 78t-19 92.5t-26 99.5t-30.5 98.5t-31 88l141 53q7 -19 21.5 -60t31 -95t33 -117t27 -124t12 -116.5t-10.5 -94.5q-21 -69 -59 -108.5t-87 -60t-106 -25.5t-116 -5h-300h-6
q-31 0 -53.5 21t-22.5 53zM180 -181l137 -136l-136 -134l-136 135zM420 -316l134 135l138 -136l-136 -134zM231 -597l136 134l136 -135l-134 -135z" />
    <glyph glyph-name="uni067E.medi" unicode="&#x67e;" horiz-adv-x="874" arabic-form="medial" 
d="M-67 75q0 32 22.5 53.5t52.5 21.5q49 0 104.5 5t105 16.5t88 30.5t55.5 48q23 39 29.5 87.5t3 95.5t-12.5 86.5t-18 60.5l140 55q1 -3 10 -27.5t18 -64t14.5 -90.5t0.5 -105h1q-2 -65 41 -108q24 -25 52.5 -42.5t64.5 -28t81 -15t101 -4.5v-150q-128 0 -232 30t-176 105
l-9 10q-30 -51 -77 -80.5t-106.5 -43.5t-128.5 -17.5t-144 -3.5h-6q-30 0 -52.5 21.5t-22.5 53.5zM185 -181l137 -136l-136 -134l-136 135zM425 -316l134 135l138 -136l-136 -134zM236 -597l136 134l136 -135l-134 -135z" />
    <glyph glyph-name="uni062A" unicode="&#x62a;" horiz-adv-x="2059" arabic-form="isolated" 
d="M1772 813q22 -39 44.5 -85.5t43 -95.5t37 -98.5t27.5 -94.5q10 -42 10.5 -79.5t-12.5 -71.5t-41 -65t-76 -59q-50 -30 -120.5 -53.5t-150 -41.5t-163.5 -30.5t-161.5 -21t-143 -12t-108.5 -3.5q-38 0 -95.5 1t-125 8t-140 22t-141 42t-128 69.5t-100.5 103.5
q-138 211 11 573l138 -58q-59 -143 -64.5 -251.5t42.5 -180.5q30 -45 77 -75t103 -50t117 -30.5t118 -15.5t106 -6t82 -1q88 0 178 7.5t175 20.5t162 30.5t139.5 36.5t106.5 39.5t63 39.5q-3 48 -17.5 102.5t-36.5 109.5t-48 107.5t-51 94.5zM991 802l-134 -133l-137 135
l135 136zM1334 802l-135 -133l-136 135l136 136z" />
    <glyph glyph-name="uni062A.init" unicode="&#x62a;" horiz-adv-x="728" arabic-form="initial" 
d="M-76 74q0 32 22.5 54.5t53.5 22.5h199q70 -1 114 1t70 11t39.5 27.5t23.5 51.5q6 20 5 54.5t-8.5 78t-19 92.5t-26 99.5t-30.5 98.5t-31 88l141 53q7 -19 21.5 -60t31 -95t33 -117t27 -124t12 -116.5t-10.5 -94.5q-21 -69 -55.5 -108.5t-79 -60t-98 -25.5t-112.5 -5h-240
h-6q-31 0 -53.5 21t-22.5 53zM291 1142l-134 -133l-137 135l135 136zM634 1142l-135 -133l-136 135l136 136z" />
    <glyph glyph-name="uni062A.medi" unicode="&#x62a;" horiz-adv-x="874" arabic-form="medial" 
d="M-72 75q0 32 22.5 53.5t52.5 21.5q49 0 104.5 5t105 16.5t88 30.5t55.5 48q23 39 29.5 87.5t3 95.5t-12.5 86.5t-18 60.5l140 55q1 -3 10 -27.5t18 -64t14.5 -90.5t0.5 -105h1q-2 -65 41 -108q24 -25 52.5 -42.5t64.5 -28t81 -15t101 -4.5v-150q-128 0 -232 30t-176 105
l-9 10q-30 -51 -77 -80.5t-106.5 -43.5t-128.5 -17.5t-144 -3.5h-6q-30 0 -52.5 21.5t-22.5 53.5zM370 1002l-134 -133l-137 135l135 136zM713 1002l-135 -133l-136 135l136 136z" />
    <glyph glyph-name="uni062A.fina" unicode="&#x62a;" horiz-adv-x="2109" arabic-form="final" 
d="M1874 228q13 -21 44 -35.5t67 -24t71 -13.5t56 -4v-150q-6 0 -29 1t-56 5t-72 13t-78 25.5t-73 41t-57 60.5q-21 32 -30 67q-58 -43 -134.5 -81.5t-175.5 -68t-222 -46.5t-273 -17q-257 0 -425.5 62.5t-248.5 188.5q-32 50 -47 103.5t-17.5 106t4.5 102.5t19 93.5
t26.5 79.5t25.5 60l136 -65q-7 -14 -17 -39.5t-20 -58t-17 -70.5t-7 -77.5t9 -79t32 -74.5q57 -90 195.5 -136t351.5 -46q153 0 273 18.5t212 49.5t158.5 70t113 80.5t75 82t45 73t22 53.5t6.5 25l148 -25q0 -3 -3.5 -18.5t-12 -40.5t-23.5 -57t-39 -69q-49 -108 -13 -165z
M962 798l-134 -133l-137 135l135 136zM1305 798l-135 -133l-136 135l136 136z" />
    <glyph glyph-name="uni062B" unicode="&#x62b;" horiz-adv-x="2049" arabic-form="isolated" 
d="M1784 813q22 -39 44.5 -85.5t43 -95.5t37 -98.5t27.5 -94.5q10 -42 10.5 -79.5t-12.5 -71.5t-41 -65t-76 -59q-50 -30 -120.5 -53.5t-150 -41.5t-163.5 -30.5t-161.5 -21t-143 -12t-108.5 -3.5q-38 0 -95.5 1t-125 8t-140 22t-141 42t-128 69.5t-100.5 103.5
q-138 211 11 573l138 -58q-59 -143 -64.5 -251.5t42.5 -180.5q30 -45 77 -75t103 -50t117 -30.5t118 -15.5t106 -6t82 -1q88 0 178 7.5t175 20.5t162 30.5t139.5 36.5t106.5 39.5t63 39.5q-3 48 -17.5 102.5t-36.5 109.5t-48 107.5t-51 94.5zM1002 812l-127 -129l-130 130
l129 128zM1184 1085l-127 -129l-129 130l128 128zM1230 683l-127 130l126 128l130 -129z" />
    <glyph glyph-name="uni062B.init" unicode="&#x62b;" horiz-adv-x="718" arabic-form="initial" 
d="M-76 74q0 32 22.5 54.5t53.5 22.5h199q70 -1 114 1t70 11t39.5 27.5t23.5 51.5q6 20 5 54.5t-8.5 78t-19 92.5t-26 99.5t-30.5 98.5t-31 88l141 53q7 -19 21.5 -60t31 -95t33 -117t27 -124t12 -116.5t-10.5 -94.5q-21 -69 -55.5 -108.5t-79 -60t-98 -25.5t-112.5 -5h-240
h-6q-31 0 -53.5 21t-22.5 53zM279 1079l-127 -129l-130 130l129 128zM461 1352l-127 -129l-129 130l128 128zM507 950l-127 130l126 128l130 -129z" />
    <glyph glyph-name="uni062B.medi" unicode="&#x62b;" horiz-adv-x="884" arabic-form="medial" 
d="M-60 75q0 32 22.5 53.5t52.5 21.5q49 0 104.5 5t105 16.5t88 30.5t55.5 48q23 39 29.5 87.5t3 95.5t-12.5 86.5t-18 60.5l140 55q1 -3 10 -27.5t18 -64t14.5 -90.5t0.5 -105h1q-2 -65 41 -108q24 -25 52.5 -42.5t64.5 -28t81 -15t101 -4.5v-150q-128 0 -232 30t-176 105
l-9 10q-30 -51 -77 -80.5t-106.5 -43.5t-128.5 -17.5t-144 -3.5h-6q-30 0 -52.5 21.5t-22.5 53.5zM306 941l-127 -129l-130 130l129 128zM488 1214l-127 -129l-129 130l128 128zM534 812l-127 130l126 128l130 -129z" />
    <glyph glyph-name="uni062B.fina" unicode="&#x62b;" horiz-adv-x="2089" arabic-form="final" 
d="M1863 225q13 -21 44 -35.5t67 -24t71 -13.5t56 -4v-150q-6 0 -29 1t-56 5t-72 13t-78 25.5t-73 41t-57 60.5q-21 32 -30 67q-58 -43 -134.5 -81.5t-175.5 -68t-222 -46.5t-273 -17q-257 0 -425.5 62.5t-248.5 188.5q-32 50 -47 103.5t-17.5 106t4.5 102.5t19 93.5
t26.5 79.5t25.5 60l136 -65q-7 -14 -17 -39.5t-20 -58t-17 -70.5t-7 -77.5t9 -79t32 -74.5q57 -90 195.5 -136t351.5 -46q153 0 273 18.5t212 49.5t158.5 70t113 80.5t75 82t45 73t22 53.5t6.5 25l148 -25q0 -3 -3.5 -18.5t-12 -40.5t-23.5 -57t-39 -69q-49 -108 -13 -165z
M1015 779l-127 -129l-130 130l129 128zM1197 1052l-127 -129l-129 130l128 128zM1243 650l-127 130l126 128l130 -129z" />
    <glyph glyph-name="uni0679" unicode="&#x679;" horiz-adv-x="2049" arabic-form="isolated" 
d="M1791 813q22 -39 44.5 -85.5t43 -95.5t37 -98.5t27.5 -94.5q10 -42 10.5 -79.5t-12.5 -71.5t-41 -65t-76 -59q-50 -30 -120.5 -53.5t-150 -41.5t-163.5 -30.5t-161.5 -21t-143 -12t-108.5 -3.5q-38 0 -95.5 1t-125 8t-140 22t-141 42t-128 69.5t-100.5 103.5
q-138 211 11 573l138 -58q-59 -143 -64.5 -251.5t42.5 -180.5q30 -45 77 -75t103 -50t117 -30.5t118 -15.5t106 -6t82 -1q88 0 178 7.5t175 20.5t162 30.5t139.5 36.5t106.5 39.5t63 39.5q-3 48 -17.5 102.5t-36.5 109.5t-48 107.5t-51 94.5zM1357 1008q42 -29 60.5 -75.5
t10.5 -100.5q-10 -63 -49.5 -110.5t-97.5 -66.5q-34 -11 -61.5 -17.5t-51.5 -10.5t-46 -5t-43 -1h-38q-11 0 -23 0.5t-25 0.5q-82 0 -137.5 5.5t-89 12t-49 12.5t-18.5 8l19 33l17 33q1 0 21.5 -7t73.5 -14q8 12 28 39.5t49 62.5q5 18 7.5 51t1.5 76.5t-3.5 94.5t-6.5 104.5
t-9 106.5t-10 100l75 7q3 -24 8 -73.5t10.5 -111.5t8.5 -131t2 -132l14 14t15 14q46 41 92.5 67t90.5 36.5t83 5t71 -27.5zM1354 843q5 32 -6 59t-34 44q-41 29 -107 8.5t-137 -83.5q-48 -42 -87.5 -90t-64.5 -82q17 -1 35.5 -1h39.5q14 0 26 -0.5t23 -0.5h49t48 2.5
t53.5 8.5t65.5 18t63 44t33 73z" />
    <glyph glyph-name="uni0679.init" unicode="&#x679;" horiz-adv-x="710" arabic-form="initial" 
d="M-74 74q0 32 22.5 54.5t53.5 22.5h199q70 -1 114 1t70 11t39.5 27.5t23.5 51.5q6 20 5 54.5t-8.5 78t-19 92.5t-26 99.5t-30.5 98.5t-31 88l141 53q7 -19 21.5 -60t31 -95t33 -117t27 -124t12 -116.5t-10.5 -94.5q-21 -69 -55.5 -108.5t-79 -60t-98 -25.5t-112.5 -5h-240
h-6q-31 0 -53.5 21t-22.5 53zM564 1343q42 -29 60.5 -75.5t10.5 -100.5q-10 -63 -49.5 -110.5t-97.5 -66.5q-34 -11 -61.5 -17.5t-51.5 -10.5t-46 -5t-43 -1h-38q-11 0 -23 0.5t-25 0.5q-82 0 -137.5 5.5t-89 12t-49 12.5t-18.5 8l19 33l17 33q1 0 21.5 -7t73.5 -14
q8 12 28 39.5t49 62.5q5 18 7.5 51t1.5 76.5t-3.5 94.5t-6.5 104.5t-9 106.5t-10 100l75 7q3 -24 8 -73.5t10.5 -111.5t8.5 -131t2 -132l14 14t15 14q46 41 92.5 67t90.5 36.5t83 5t71 -27.5zM561 1178q5 32 -6 59t-34 44q-41 29 -107 8.5t-137 -83.5q-48 -42 -87.5 -90
t-64.5 -82q17 -1 35.5 -1h39.5q14 0 26 -0.5t23 -0.5h49t48 2.5t53.5 8.5t65.5 18t63 44t33 73z" />
    <glyph glyph-name="uni0679.medi" unicode="&#x679;" horiz-adv-x="874" arabic-form="medial" 
d="M-72 75q0 32 22.5 53.5t52.5 21.5q49 0 104.5 5t105 16.5t88 30.5t55.5 48q23 39 29.5 87.5t3 95.5t-12.5 86.5t-18 60.5l140 55q1 -3 10 -27.5t18 -64t14.5 -90.5t0.5 -105h1q-2 -65 41 -108q24 -25 52.5 -42.5t64.5 -28t81 -15t101 -4.5v-150q-128 0 -232 30t-176 105
l-9 10q-30 -51 -77 -80.5t-106.5 -43.5t-128.5 -17.5t-144 -3.5h-6q-30 0 -52.5 21.5t-22.5 53.5zM693 1244q42 -29 60.5 -75.5t10.5 -100.5q-10 -63 -49.5 -110.5t-97.5 -66.5q-34 -11 -61.5 -17.5t-51.5 -10.5t-46 -5t-43 -1h-38q-11 0 -23 0.5t-25 0.5q-82 0 -137.5 5.5
t-89 12t-49 12.5t-18.5 8l19 33l17 33q1 0 21.5 -7t73.5 -14q8 12 28 39.5t49 62.5q5 18 7.5 51t1.5 76.5t-3.5 94.5t-6.5 104.5t-9 106.5t-10 100l75 7q3 -24 8 -73.5t10.5 -111.5t8.5 -131t2 -132l14 14t15 14q46 41 92.5 67t90.5 36.5t83 5t71 -27.5zM690 1079
q5 32 -6 59t-34 44q-41 29 -107 8.5t-137 -83.5q-48 -42 -87.5 -90t-64.5 -82q17 -1 35.5 -1h39.5q14 0 26 -0.5t23 -0.5h49t48 2.5t53.5 8.5t65.5 18t63 44t33 73z" />
    <glyph glyph-name="uni0679.fina" unicode="&#x679;" horiz-adv-x="2049" arabic-form="final" 
d="M1823 228q13 -21 44 -35.5t67 -24t71 -13.5t56 -4v-150q-6 0 -29 1t-56 5t-72 13t-78 25.5t-73 41t-57 60.5q-21 32 -30 67q-58 -43 -134.5 -81.5t-175.5 -68t-222 -46.5t-273 -17q-257 0 -425.5 62.5t-248.5 188.5q-32 50 -47 103.5t-17.5 106t4.5 102.5t19 93.5
t26.5 79.5t25.5 60l136 -65q-7 -14 -17 -39.5t-20 -58t-17 -70.5t-7 -77.5t9 -79t32 -74.5q57 -90 195.5 -136t351.5 -46q153 0 273 18.5t212 49.5t158.5 70t113 80.5t75 82t45 73t22 53.5t6.5 25l148 -25q0 -3 -3.5 -18.5t-12 -40.5t-23.5 -57t-39 -69q-49 -108 -13 -165z
M1241 1016q42 -29 60.5 -75.5t10.5 -100.5q-10 -63 -49.5 -110.5t-97.5 -66.5q-34 -11 -61.5 -17.5t-51.5 -10.5t-46 -5t-43 -1h-38q-11 0 -23 0.5t-25 0.5q-82 0 -137.5 5.5t-89 12t-49 12.5t-18.5 8l19 33l17 33q1 0 21.5 -7t73.5 -14q8 12 28 39.5t49 62.5q5 18 7.5 51
t1.5 76.5t-3.5 94.5t-6.5 104.5t-9 106.5t-10 100l75 7q3 -24 8 -73.5t10.5 -111.5t8.5 -131t2 -132l14 14t15 14q46 41 92.5 67t90.5 36.5t83 5t71 -27.5zM1238 851q5 32 -6 59t-34 44q-41 29 -107 8.5t-137 -83.5q-48 -42 -87.5 -90t-64.5 -82q17 -1 35.5 -1h39.5
q14 0 26 -0.5t23 -0.5h49t48 2.5t53.5 8.5t65.5 18t63 44t33 73z" />
    <glyph glyph-name="uni0629" unicode="&#x629;" horiz-adv-x="1020" arabic-form="isolated" 
d="M530 1q-69 0 -136 20t-120.5 59t-86.5 96t-33 132q0 72 17.5 139t43.5 124.5t55.5 104.5t53.5 80q-11 3 -16.5 5t-6.5 2l40 146q4 -1 31 -9.5t68 -25t92 -42t103.5 -60t102 -79.5t88.5 -100.5t62.5 -123t23.5 -147.5q0 -55 -15.5 -112t-57.5 -103.5t-116.5 -76
t-192.5 -29.5zM469 694q-16 -19 -43.5 -57t-54.5 -89t-46.5 -112.5t-19.5 -127.5q0 -42 23 -72t56.5 -49t73 -27.5t72.5 -8.5q63 0 107 9t71.5 29.5t40 53t12.5 79.5q0 69 -27 126.5t-69.5 103.5t-94.5 81.5t-101 60.5zM431 1270l-134 -133l-137 135l135 136zM774 1270
l-135 -133l-136 135l136 136z" />
    <glyph glyph-name="uni0629.fina" unicode="&#x629;" horiz-adv-x="1145" arabic-form="final" 
d="M1109 151h46v-150h-49q-68 0 -127.5 14t-108 42t-83.5 69t-52 94q-56 -32 -126 -52.5t-146 -20.5q-18 0 -36.5 1.5t-36.5 3.5q-60 10 -109 43t-80 86q-29 51 -34.5 109.5t15.5 113.5q15 42 49.5 83.5t79 79.5t95 72.5t97.5 62.5t86 49t62 32l-16 128l150 18l79 -660
q12 -55 29.5 -96t46 -68t69.5 -40.5t100 -13.5zM413 301q49 -8 95.5 -1t86 21t70 31.5t46.5 32.5l-41 339q-54 -29 -111 -64t-106 -72t-84.5 -72t-45.5 -64q-9 -23 -6.5 -48t15.5 -47q28 -48 81 -56zM651 1401l-134 -133l-137 135l135 136zM994 1401l-135 -133l-136 135
l136 136z" />
    <glyph glyph-name="uni0686.init" unicode="&#x686;" horiz-adv-x="1536" arabic-form="initial" 
d="M-76 74q0 32 22.5 54t53.5 22q137 0 274.5 23.5t265.5 60t242 81.5t204 89q30 16 65.5 33.5t72.5 35.5q-78 17 -143 36.5t-119.5 39.5t-101 39.5t-86.5 36.5q-66 30 -115 48t-94 18q-37 0 -68.5 -19t-58.5 -50t-50.5 -70t-43.5 -78l-133 69q19 36 48.5 87t72.5 98.5
t100.5 80.5t132.5 33q34 0 66.5 -6t65 -16.5t66.5 -25t72 -30.5q50 -22 110.5 -47.5t137.5 -50t173 -47.5t218 -40l22 -141q-62 -31 -124 -61q-53 -26 -112.5 -55t-107.5 -52q-96 -46 -214 -94t-252 -87t-282 -64t-304 -25q-31 0 -53.5 21t-22.5 53zM522 -192l137 -136
l-136 -134l-136 135zM762 -327l134 135l138 -136l-136 -134zM573 -608l136 134l136 -135l-134 -135z" />
    <glyph glyph-name="uni0686.medi" unicode="&#x686;" horiz-adv-x="1632" arabic-form="medial" 
d="M-75 75q0 32 22.5 54t53.5 22q141 0 274 23t252 58.5t219.5 78t177.5 81.5l67 32l139 67q-78 18 -143 38t-120 40t-101.5 39.5t-86.5 36.5q-66 29 -115 47.5t-93 18.5q-38 0 -69.5 -19t-58.5 -50t-50 -70t-44 -78l-133 68q13 24 30 56t40 65t51.5 65.5t63.5 57.5
t77.5 40.5t92.5 15.5q34 0 66.5 -6t65 -16.5t66.5 -25t72 -30.5q50 -22 110.5 -47.5t137.5 -50t173 -47.5t217 -40l23 -143q-28 -13 -61 -29q-28 -14 -63.5 -31t-73.5 -35q0 -78 39.5 -120.5t103.5 -62t143 -23t159 -3.5v-151q-37 0 -95 1.5t-123.5 9.5t-131.5 25.5
t-119.5 49.5t-86.5 82t-33 122q0 2 -0.5 0t-2.5 -3q-16 -8 -32.5 -15.5t-34.5 -16.5q-81 -41 -186.5 -85.5t-230.5 -82t-268 -62.5t-299 -25h-5q-31 0 -53.5 21t-22.5 53zM499 -180l137 -136l-136 -134l-136 135zM739 -315l134 135l138 -136l-136 -134zM550 -596l136 134
l136 -135l-134 -135z" />
    <glyph glyph-name="uni062C" unicode="&#x62c;" horiz-adv-x="1577" arabic-form="isolated" 
d="M1383 -488l66 -136q-138 -66 -282.5 -99.5t-284.5 -33.5q-130 0 -246 29.5t-209 87.5q-131 82 -198.5 209t-67.5 293q0 113 37 204.5t100.5 164t148 127t178.5 95t192 68t190 45.5q-78 30 -139 59.5t-112 55.5q-63 33 -110.5 53.5t-90.5 20.5q-41 0 -87 -17t-79 -44
q-32 -27 -56.5 -58t-42 -57.5t-26.5 -44.5l-9 -18l-137 64q1 2 13 25t34 57t54 73t74 74q54 45 124 71.5t138 26.5q35 0 67.5 -7t65.5 -19.5t66.5 -29t70.5 -35.5q48 -25 105 -53t130 -55t163.5 -52t204.5 -43l-10 -150q-2 0 -50.5 -2.5t-127 -11t-177.5 -26t-202.5 -47
t-202 -73.5t-176 -106.5t-124.5 -145t-47 -189.5q0 -125 49 -219.5t147 -155.5q80 -50 183.5 -73.5t219 -20.5t236.5 33t237 86zM991 -121l-136 -136l-136 137l135 135z" />
    <glyph glyph-name="uni062C.init" unicode="&#x62c;" horiz-adv-x="1532" arabic-form="initial" 
d="M-76 74q0 32 22.5 54t53.5 22q137 0 274.5 23.5t265.5 60t242 81.5t204 89q30 16 65.5 33.5t72.5 35.5q-78 17 -143 36.5t-119.5 39.5t-101 39.5t-86.5 36.5q-66 30 -115 48t-94 18q-37 0 -68.5 -19t-58.5 -50t-50.5 -70t-43.5 -78l-133 69q19 36 48.5 87t72.5 98.5
t100.5 80.5t132.5 33q34 0 66.5 -6t65 -16.5t66.5 -25t72 -30.5q50 -22 110.5 -47.5t137.5 -50t173 -47.5t218 -40l22 -141q-62 -31 -124 -61q-53 -26 -112.5 -55t-107.5 -52q-96 -46 -214 -94t-252 -87t-282 -64t-304 -25q-31 0 -53.5 21t-22.5 53zM852 -307l-136 -136
l-136 137l135 135z" />
    <glyph glyph-name="uni062C.medi" unicode="&#x62c;" horiz-adv-x="1647" arabic-form="medial" 
d="M-71 75q0 32 22.5 54t53.5 22q141 0 274 23t252 58.5t219.5 78t177.5 81.5l67 32l139 67q-78 18 -143 38t-120 40t-101.5 39.5t-86.5 36.5q-66 29 -115 47.5t-93 18.5q-38 0 -69.5 -19t-58.5 -50t-50 -70t-44 -78l-133 68q13 24 30 56t40 65t51.5 65.5t63.5 57.5
t77.5 40.5t92.5 15.5q34 0 66.5 -6t65 -16.5t66.5 -25t72 -30.5q50 -22 110.5 -47.5t137.5 -50t173 -47.5t217 -40l23 -143q-28 -13 -61 -29q-28 -14 -63.5 -31t-73.5 -35q0 -78 39.5 -120.5t103.5 -62t143 -23t159 -3.5v-151q-37 0 -95 1.5t-123.5 9.5t-131.5 25.5
t-119.5 49.5t-86.5 82t-33 122q0 2 -0.5 0t-2.5 -3q-16 -8 -32.5 -15.5t-34.5 -16.5q-81 -41 -186.5 -85.5t-230.5 -82t-268 -62.5t-299 -25h-5q-31 0 -53.5 21t-22.5 53zM859 -303l-136 -136l-136 137l135 135z" />
    <glyph glyph-name="uni062C.fina" unicode="&#x62c;" horiz-adv-x="1702" arabic-form="final" 
d="M1141 429q-81 -15 -169.5 -37t-174 -54.5t-162 -76.5t-135 -102t-92.5 -131t-34 -164q0 -254 196 -375q80 -50 183.5 -73.5t219 -20t236.5 33t237 85.5l66 -135q-139 -67 -284 -100t-283 -33q-130 0 -246 28t-209 88q-132 82 -200 209.5t-68 292.5q0 113 37.5 204.5
t101 163.5t148 127t178.5 95.5t192.5 68.5t189.5 46q-78 29 -138.5 58.5t-111.5 55.5q-63 33 -110.5 54t-92.5 21q-20 0 -42 -4.5t-44 -13t-42 -20t-36 -25.5q-32 -26 -56.5 -57t-42 -57t-27 -44t-10.5 -19l-136 65q1 2 13 24.5t34.5 56.5t54.5 73t73 74q54 45 124.5 70.5
t136.5 25.5q36 0 69 -7t65.5 -19t66 -28t70.5 -35q47 -25 104.5 -53t130.5 -55t164 -52t205 -43l-10 -150q-3 0 -55 -2t-135 -13q0 -74 19 -130t58 -93q23 -23 57 -37.5t71.5 -23t75 -12t67.5 -4.5t48.5 -0.5t19.5 0.5v-150h-15t-32 -0.5t-36 -0.5h-27q-27 0 -67.5 4
t-86 16.5t-92.5 36t-88 63.5q-60 56 -90 133.5t-32 176.5zM1012 -135l-136 -136l-136 137l135 135z" />
    <glyph glyph-name="uni062E" unicode="&#x62e;" horiz-adv-x="1592" arabic-form="isolated" 
d="M1441 -495l66 -136q-138 -66 -282.5 -99.5t-284.5 -33.5q-130 0 -246 29.5t-209 87.5q-131 82 -198.5 209t-67.5 293q0 113 37 204.5t100.5 164t148 127t178.5 95t192 68t190 45.5q-78 30 -139 59.5t-112 55.5q-63 33 -110.5 53.5t-90.5 20.5q-41 0 -87 -17t-79 -44
q-32 -27 -56.5 -58t-42 -57.5t-26.5 -44.5l-9 -18l-137 64q1 2 13 25t34 57t54 73t74 74q54 45 124 71.5t138 26.5q35 0 67.5 -7t65.5 -19.5t66.5 -29t70.5 -35.5q48 -25 105 -53t130 -55t163.5 -52t204.5 -43l-10 -150q-2 0 -50.5 -2.5t-127 -11t-177.5 -26t-202.5 -47
t-202 -73.5t-176 -106.5t-124.5 -145t-47 -189.5q0 -125 49 -219.5t147 -155.5q80 -50 183.5 -73.5t219 -20.5t236.5 33t237 86zM700 1248l-136 -136l-136 137l135 135z" />
    <glyph glyph-name="uni062E.init" unicode="&#x62e;" horiz-adv-x="1562" arabic-form="initial" 
d="M-76 74q0 32 22.5 54t53.5 22q137 0 274.5 23.5t265.5 60t242 81.5t204 89q30 16 65.5 33.5t72.5 35.5q-78 17 -143 36.5t-119.5 39.5t-101 39.5t-86.5 36.5q-66 30 -115 48t-94 18q-37 0 -68.5 -19t-58.5 -50t-50.5 -70t-43.5 -78l-133 69q19 36 48.5 87t72.5 98.5
t100.5 80.5t132.5 33q34 0 66.5 -6t65 -16.5t66.5 -25t72 -30.5q50 -22 110.5 -47.5t137.5 -50t173 -47.5t218 -40l22 -141q-62 -31 -124 -61q-53 -26 -112.5 -55t-107.5 -52q-96 -46 -214 -94t-252 -87t-282 -64t-304 -25q-31 0 -53.5 21t-22.5 53zM556 1188l-136 -136
l-136 137l135 135z" />
    <glyph glyph-name="uni062E.medi" unicode="&#x62e;" horiz-adv-x="1642" arabic-form="medial" 
d="M-71 75q0 32 22.5 54t53.5 22q141 0 274 23t252 58.5t219.5 78t177.5 81.5l67 32l139 67q-78 18 -143 38t-120 40t-101.5 39.5t-86.5 36.5q-66 29 -115 47.5t-93 18.5q-38 0 -69.5 -19t-58.5 -50t-50 -70t-44 -78l-133 68q13 24 30 56t40 65t51.5 65.5t63.5 57.5
t77.5 40.5t92.5 15.5q34 0 66.5 -6t65 -16.5t66.5 -25t72 -30.5q50 -22 110.5 -47.5t137.5 -50t173 -47.5t217 -40l23 -143q-28 -13 -61 -29q-28 -14 -63.5 -31t-73.5 -35q0 -78 39.5 -120.5t103.5 -62t143 -23t159 -3.5v-151q-37 0 -95 1.5t-123.5 9.5t-131.5 25.5
t-119.5 49.5t-86.5 82t-33 122q0 2 -0.5 0t-2.5 -3q-16 -8 -32.5 -15.5t-34.5 -16.5q-81 -41 -186.5 -85.5t-230.5 -82t-268 -62.5t-299 -25h-5q-31 0 -53.5 21t-22.5 53zM592 1194l-136 -136l-136 137l135 135z" />
    <glyph glyph-name="uni062E.fina" unicode="&#x62e;" horiz-adv-x="1697" arabic-form="final" 
d="M1141 429q-81 -15 -169.5 -37t-174 -54.5t-162 -76.5t-135 -102t-92.5 -131t-34 -164q0 -254 196 -375q80 -50 183.5 -73.5t219 -20t236.5 33t237 85.5l66 -135q-139 -67 -284 -100t-283 -33q-130 0 -246 28t-209 88q-132 82 -200 209.5t-68 292.5q0 113 37.5 204.5
t101 163.5t148 127t178.5 95.5t192.5 68.5t189.5 46q-78 29 -138.5 58.5t-111.5 55.5q-63 33 -110.5 54t-92.5 21q-20 0 -42 -4.5t-44 -13t-42 -20t-36 -25.5q-32 -26 -56.5 -57t-42 -57t-27 -44t-10.5 -19l-136 65q1 2 13 24.5t34.5 56.5t54.5 73t73 74q54 45 124.5 70.5
t136.5 25.5q36 0 69 -7t65.5 -19t66 -28t70.5 -35q47 -25 104.5 -53t130.5 -55t164 -52t205 -43l-10 -150q-3 0 -55 -2t-135 -13q0 -74 19 -130t58 -93q23 -23 57 -37.5t71.5 -23t75 -12t67.5 -4.5t48.5 -0.5t19.5 0.5v-150h-15t-32 -0.5t-36 -0.5h-27q-27 0 -67.5 4
t-86 16.5t-92.5 36t-88 63.5q-60 56 -90 133.5t-32 176.5zM722 1251l-136 -136l-136 137l135 135z" />
    <glyph glyph-name="uni0630" unicode="&#x630;" horiz-adv-x="1140" arabic-form="isolated" 
d="M525 1q-90 0 -164.5 18t-128 40.5t-84 41t-33.5 20.5l87 122l24 -14t66.5 -31.5t102 -31.5t130.5 -14q161 0 249 50.5t88 144.5q0 83 -31 160.5t-77.5 144.5t-100.5 122.5t-101 95t-79 61.5t-33 23l81 126q5 -3 43.5 -29.5t93 -73.5t117 -112.5t115 -146t87.5 -174
t35 -197.5q0 -21 -4.5 -54.5t-21 -72t-48.5 -77.5t-86 -70.5t-134 -51.5t-193 -20zM635 1404l-136 -136l-136 137l135 135z" />
    <glyph glyph-name="uni0630.fina" unicode="&#x630;" horiz-adv-x="1135" arabic-form="final" 
d="M1120 150h21v-150h-21q-150 2 -246 126q-25 -23 -60.5 -45.5t-83 -40.5t-108 -29t-136.5 -11q-110 0 -185.5 22.5t-122 50t-67 51.5t-21.5 27l102 115q0 -1 18.5 -19t55.5 -39.5t92 -39.5t128 -18q73 -1 126.5 11t91 30t60 37.5t34.5 34.5l-8 20t-7 21l-270 654l138 57
l301 -728v-1q23 -49 47 -76.5t46.5 -40.5t41.5 -16t33 -3zM742 1357l-136 -136l-136 137l135 135z" />
    <glyph glyph-name="uni0688" unicode="&#x688;" horiz-adv-x="1115" arabic-form="isolated" 
d="M533 1q-90 0 -164.5 18t-128 40.5t-84 41t-33.5 20.5l87 122l24 -14t66.5 -31.5t102 -31.5t130.5 -14q161 0 249 50.5t88 144.5q0 83 -31 160.5t-77.5 144.5t-100.5 122.5t-101 95t-79 61.5t-33 23l81 126q5 -3 43.5 -29.5t93 -73.5t117 -112.5t115 -146t87.5 -174
t35 -197.5q0 -21 -4.5 -54.5t-21 -72t-48.5 -77.5t-86 -70.5t-134 -51.5t-193 -20zM737 1588q42 -29 60.5 -75.5t10.5 -100.5q-10 -63 -49.5 -110.5t-97.5 -66.5q-34 -11 -61.5 -17.5t-51.5 -10.5t-46 -5t-43 -1h-38q-11 0 -23 0.5t-25 0.5q-82 0 -137.5 5.5t-89 12
t-49 12.5t-18.5 8l19 33l17 33q1 0 21.5 -7t73.5 -14q8 12 28 39.5t49 62.5q5 18 7.5 51t1.5 76.5t-3.5 94.5t-6.5 104.5t-9 106.5t-10 100l75 7q3 -24 8 -73.5t10.5 -111.5t8.5 -131t2 -132l14 14t15 14q46 41 92.5 67t90.5 36.5t83 5t71 -27.5zM734 1423q5 32 -6 59
t-34 44q-41 29 -107 8.5t-137 -83.5q-48 -42 -87.5 -90t-64.5 -82q17 -1 35.5 -1h39.5q14 0 26 -0.5t23 -0.5h49t48 2.5t53.5 8.5t65.5 18t63 44t33 73z" />
    <glyph glyph-name="uni0688.fina" unicode="&#x688;" horiz-adv-x="1133" arabic-form="final" 
d="M1120 150h21v-150h-21q-150 2 -246 126q-25 -23 -60.5 -45.5t-83 -40.5t-108 -29t-136.5 -11q-110 0 -185.5 22.5t-122 50t-67 51.5t-21.5 27l102 115q0 -1 18.5 -19t55.5 -39.5t92 -39.5t128 -18q73 -1 126.5 11t91 30t60 37.5t34.5 34.5l-8 20t-7 21l-270 654l138 57
l301 -728v-1q23 -49 47 -76.5t46.5 -40.5t41.5 -16t33 -3zM815 1527q42 -29 60.5 -75.5t10.5 -100.5q-10 -63 -49.5 -110.5t-97.5 -66.5q-34 -11 -61.5 -17.5t-51.5 -10.5t-46 -5t-43 -1h-38q-11 0 -23 0.5t-25 0.5q-82 0 -137.5 5.5t-89 12t-49 12.5t-18.5 8l19 33l17 33
q1 0 21.5 -7t73.5 -14q8 12 28 39.5t49 62.5q5 18 7.5 51t1.5 76.5t-3.5 94.5t-6.5 104.5t-9 106.5t-10 100l75 7q3 -24 8 -73.5t10.5 -111.5t8.5 -131t2 -132l14 14t15 14q46 41 92.5 67t90.5 36.5t83 5t71 -27.5zM812 1362q5 32 -6 59t-34 44q-41 29 -107 8.5t-137 -83.5
q-48 -42 -87.5 -90t-64.5 -82q17 -1 35.5 -1h39.5q14 0 26 -0.5t23 -0.5h49t48 2.5t53.5 8.5t65.5 18t63 44t33 73z" />
    <glyph glyph-name="uni0632" unicode="&#x632;" horiz-adv-x="944" arabic-form="isolated" 
d="M199 -620l-65 137q1 0 23 11t57.5 32t80 51t91 69t91 85.5t79.5 100.5t56 115t21 128q0 32 -9 73.5t-23.5 86t-32.5 90t-36 87t-34.5 75.5t-27.5 56l135 70q4 -9 19 -39t35 -74.5t42 -98.5t40 -110.5t30 -112.5t12 -103q0 -113 -41.5 -210t-104.5 -177.5t-137 -142.5
t-139 -105.5t-110.5 -67t-51.5 -26.5zM676 1020l-136 -136l-136 137l135 135z" />
    <glyph glyph-name="uni0632.fina" unicode="&#x632;" horiz-adv-x="1078" arabic-form="final" 
d="M1086 151v-151h-56.5t-68.5 6.5t-73 23.5t-68 51q-2 -53 -14.5 -111.5t-41 -120.5t-74.5 -126.5t-115.5 -128t-164.5 -125.5t-220 -120l-64 135q544 252 544 622q0 48 -12 101t-29 101.5t-35 87.5t-29 59l140 79q1 -2 7.5 -18.5t17 -42.5t23.5 -60t27 -70
q30 -75 72.5 -114.5t87 -56.5t84 -19t62.5 -2zM760 888l-136 -136l-136 137l135 135z" />
    <glyph glyph-name="uni0691" unicode="&#x691;" horiz-adv-x="897" arabic-form="isolated" 
d="M199 -620l-65 137q1 0 23 11t57.5 32t80 51t91 69t91 85.5t79.5 100.5t56 115t21 128q0 32 -9 73.5t-23.5 86t-32.5 90t-36 87t-34.5 75.5t-27.5 56l135 70q4 -9 19 -39t35 -74.5t42 -98.5t40 -110.5t30 -112.5t12 -103q0 -113 -41.5 -210t-104.5 -177.5t-137 -142.5
t-139 -105.5t-110.5 -67t-51.5 -26.5zM759 1205q42 -29 60.5 -75.5t10.5 -100.5q-10 -63 -49.5 -110.5t-97.5 -66.5q-34 -11 -61.5 -17.5t-51.5 -10.5t-46 -5t-43 -1h-38q-11 0 -23 0.5t-25 0.5q-82 0 -137.5 5.5t-89 12t-49 12.5t-18.5 8l19 33l17 33q1 0 21.5 -7t73.5 -14
q8 12 28 39.5t49 62.5q5 18 7.5 51t1.5 76.5t-3.5 94.5t-6.5 104.5t-9 106.5t-10 100l75 7q3 -24 8 -73.5t10.5 -111.5t8.5 -131t2 -132l14 14t15 14q46 41 92.5 67t90.5 36.5t83 5t71 -27.5zM756 1040q5 32 -6 59t-34 44q-41 29 -107 8.5t-137 -83.5q-48 -42 -87.5 -90
t-64.5 -82q17 -1 35.5 -1h39.5q14 0 26 -0.5t23 -0.5h49t48 2.5t53.5 8.5t65.5 18t63 44t33 73z" />
    <glyph glyph-name="uni0691.fina" unicode="&#x691;" horiz-adv-x="1071" arabic-form="final" 
d="M1086 151v-151h-56.5t-68.5 6.5t-73 23.5t-68 51q-2 -53 -14.5 -111.5t-41 -120.5t-74.5 -126.5t-115.5 -128t-164.5 -125.5t-220 -120l-64 135q544 252 544 622q0 48 -12 101t-29 101.5t-35 87.5t-29 59l140 79q1 -2 7.5 -18.5t17 -42.5t23.5 -60t27 -70
q30 -75 72.5 -114.5t87 -56.5t84 -19t62.5 -2zM796 1122q42 -29 60.5 -75.5t10.5 -100.5q-10 -63 -49.5 -110.5t-97.5 -66.5q-34 -11 -61.5 -17.5t-51.5 -10.5t-46 -5t-43 -1h-38q-11 0 -23 0.5t-25 0.5q-82 0 -137.5 5.5t-89 12t-49 12.5t-18.5 8l19 33l17 33q1 0 21.5 -7
t73.5 -14q8 12 28 39.5t49 62.5q5 18 7.5 51t1.5 76.5t-3.5 94.5t-6.5 104.5t-9 106.5t-10 100l75 7q3 -24 8 -73.5t10.5 -111.5t8.5 -131t2 -132l14 14t15 14q46 41 92.5 67t90.5 36.5t83 5t71 -27.5zM793 957q5 32 -6 59t-34 44q-41 29 -107 8.5t-137 -83.5
q-48 -42 -87.5 -90t-64.5 -82q17 -1 35.5 -1h39.5q14 0 26 -0.5t23 -0.5h49t48 2.5t53.5 8.5t65.5 18t63 44t33 73z" />
    <glyph glyph-name="uni0698" unicode="&#x698;" horiz-adv-x="930" arabic-form="isolated" 
d="M199 -620l-65 137q1 0 23 11t57.5 32t80 51t91 69t91 85.5t79.5 100.5t56 115t21 128q0 32 -9 73.5t-23.5 86t-32.5 90t-36 87t-34.5 75.5t-27.5 56l135 70q4 -9 19 -39t35 -74.5t42 -98.5t40 -110.5t30 -112.5t12 -103q0 -113 -41.5 -210t-104.5 -177.5t-137 -142.5
t-139 -105.5t-110.5 -67t-51.5 -26.5zM466 967l-127 -129l-130 130l129 128zM648 1240l-127 -129l-129 130l128 128zM694 838l-127 130l126 128l130 -129z" />
    <glyph glyph-name="uni0698.fina" unicode="&#x698;" horiz-adv-x="1071" arabic-form="final" 
d="M1086 151v-151h-56.5t-68.5 6.5t-73 23.5t-68 51q-2 -53 -14.5 -111.5t-41 -120.5t-74.5 -126.5t-115.5 -128t-164.5 -125.5t-220 -120l-64 135q544 252 544 622q0 48 -12 101t-29 101.5t-35 87.5t-29 59l140 79q1 -2 7.5 -18.5t17 -42.5t23.5 -60t27 -70
q30 -75 72.5 -114.5t87 -56.5t84 -19t62.5 -2zM546 892l-127 -129l-130 130l129 128zM728 1165l-127 -129l-129 130l128 128zM774 763l-127 130l126 128l130 -129z" />
    <glyph glyph-name="uni0634" unicode="&#x634;" horiz-adv-x="2879" arabic-form="isolated" 
d="M2597 838q5 -12 23 -51t39 -96t39.5 -126.5t25.5 -142.5t-2.5 -143.5t-44.5 -129.5q-47 -75 -128 -113t-197 -38q-40 0 -80.5 12t-78 35t-71.5 55t-61 73q-22 -38 -52.5 -70.5t-70 -55.5t-89.5 -36t-112 -13q-55 0 -100 16t-80 41q-5 -338 -183 -512.5t-517 -174.5
q-21 0 -56.5 2t-80.5 9t-96 21t-102 37t-99 57.5t-87 83.5q-153 190 -84 508q13 62 34 128t41 121.5t34.5 92.5t16.5 40l138 -58q0 -1 -6.5 -16.5t-17 -42.5t-23 -62.5t-25.5 -75t-25 -80.5t-20 -79q-53 -249 53 -382q45 -55 107 -86t122.5 -46t109 -18.5t66.5 -3.5
q277 0 412.5 136.5t135.5 414.5q0 80 -17 156.5t-37.5 137t-38 98t-17.5 38.5l134 69q1 -2 8 -17t18 -39.5t24 -59t26 -75.5l7 2q0 -1 5.5 -18t17 -43t29.5 -55.5t43 -54.5t57.5 -42t72.5 -17q31 0 63 5t61 21t54 47.5t43.5 84.5t29 131.5t10.5 188.5h156q0 -49 -5 -100
t-8 -103q-4 -63 16 -114t52.5 -86.5t71 -55t71.5 -19.5q149 0 196 79q21 34 26 81t-0.5 99t-19 106t-30 102.5t-33.5 88.5t-29 64zM2013 1021l-127 -129l-130 130l129 128zM2195 1294l-127 -129l-129 130l128 128zM2241 892l-127 130l126 128l130 -129z" />
    <glyph glyph-name="uni0634.init" unicode="&#x634;" horiz-adv-x="1721" arabic-form="initial" 
d="M-76 74q0 32 22.5 53.5t52.5 21.5q63 0 114.5 18.5t93 48t72.5 65t53 70t35 64t18 45.5v3q1 1 1 3q9 31 17.5 61.5t14.5 54.5t9.5 39t3.5 16l147 -33q-1 -1 -4.5 -16.5t-10 -41t-15 -58t-18.5 -66.5q-9 -27 -14.5 -57.5t-5 -61.5t8 -60.5t25.5 -53.5q36 -49 104 -49
q39 0 72 15.5t60.5 41t49.5 57.5t39 65.5t29 65.5t20 57v1q8 26 17.5 64t17 73.5t12.5 60.5l5 25l148 -28l-5 -25.5t-12.5 -61t-17 -75t-18.5 -68.5q-26 -133 36 -208q28 -34 60 -47t50 -13q52 0 85.5 9t53.5 21t30 24.5t14 19.5q21 35 25.5 84t-2 103.5t-22 111.5
t-34 108.5t-37 94t-31.5 68.5l133 70q6 -12 26 -53.5t42.5 -101.5t43.5 -133t30 -148.5t0 -148.5t-45 -132q-90 -149 -312 -149q-23 0 -51.5 6t-58.5 20t-60 35.5t-56 53.5q-9 12 -18.5 26.5t-19.5 31.5q-60 -84 -135.5 -128.5t-163.5 -44.5q-70 0 -127.5 29t-98.5 83
q-9 13 -17 27.5t-15 28.5q-29 -33 -63 -61.5t-79 -49.5t-104.5 -33t-138.5 -12h-6q-30 0 -52.5 21t-22.5 53zM928 982l-127 -129l-130 130l129 128zM1110 1255l-127 -129l-129 130l128 128zM1156 853l-127 130l126 128l130 -129z" />
    <glyph glyph-name="uni0634.medi" unicode="&#x634;" horiz-adv-x="1881" arabic-form="medial" 
d="M-68 74q0 32 22.5 54t53.5 22q60 0 108.5 18t86 46.5t66 64t48.5 71t32.5 67t18.5 52.5q0 3 2 4q9 32 15 55t10 37q4 17 7 27l147 -29q0 -3 -7.5 -33t-27.5 -97l-1 -6q-21 -71 -17.5 -130t32.5 -98q37 -49 104 -49q44 0 80 19.5t65.5 49.5t51.5 68t38.5 75t27 69.5
t15.5 51.5q8 30 14 51t9 35q4 16 5 27l149 -23q1 6 -3 -12.5t-10.5 -46.5t-14.5 -59t-14 -50q-11 -36 -12.5 -65.5t3 -53.5t13.5 -42t19 -31q26 -34 56.5 -48.5t53.5 -14.5q44 1 84 21t75 57q56 61 82.5 153t19.5 199l152 9q4 -65 -3 -126.5t-23 -118.5q-6 -27 4.5 -61
t36.5 -65q13 -16 35 -28.5t49.5 -21t58 -13t60.5 -4.5h79v-151h-82q-100 0 -185 32.5t-133 92.5l-10 12t-9 14l-21 -24q-55 -60 -123 -92.5t-143 -34.5h-6q-62 0 -123.5 33t-104.5 89q-6 8 -12.5 18t-12.5 20q-60 -78 -133 -119.5t-158 -41.5q-70 0 -128 28t-96 82
q-19 25 -31 52q-26 -33 -56 -62.5t-71.5 -51t-98.5 -34.5t-138 -13h-5q-31 0 -53.5 21t-22.5 53zM967 955l-127 -129l-130 130l129 128zM1149 1228l-127 -129l-129 130l128 128zM1195 826l-127 130l126 128l130 -129z" />
    <glyph glyph-name="uni0634.fina" unicode="&#x634;" horiz-adv-x="2957" arabic-form="final" 
d="M2726 222q18 -20 43 -34t55.5 -22t65 -12t72.5 -4v-150q-114 0 -204 28t-148 99l-7 10l-15 -20q-105 -119 -279 -119q-4 0 -8 1t-9 1q-35 1 -71.5 12.5t-72 32t-68.5 49t-61 63.5l-7 9q-11 -16 -22 -31t-25 -29q-100 -106 -259 -106q-63 0 -115 19t-94 48
q-5 -336 -183 -510.5t-517 -174.5q-21 0 -56.5 2t-80 9t-95.5 21t-102 37.5t-99.5 57.5t-87.5 83q-153 189 -84 509q14 63 36.5 128t44 118.5t37.5 88.5t18 38l136 -67l-7 -15t-18.5 -40t-25 -58.5t-27.5 -71t-26.5 -77.5t-20.5 -77q-26 -123 -13 -218.5t67 -161.5
q30 -37 68 -62.5t79 -43t82 -27.5t76 -15t61 -6.5t38 -1.5q277 0 413 137t136 415q0 53 -8.5 105.5t-21 100.5t-27 89.5t-27 72.5t-21 48.5t-8.5 18.5l134 69q1 -3 10 -21.5t22 -50t28.5 -73.5t29.5 -92q3 -7 11.5 -24t23 -39.5t35.5 -46.5t47.5 -44.5t59.5 -33.5t72 -13
q94 0 150 60q54 56 78.5 162.5t16.5 246.5l151 8q2 -48 0.5 -110.5t-13.5 -130.5q-5 -29 8 -65t40 -72q35 -42 79 -70t81 -29q59 -2 102 14t75 51q25 29 41.5 68t25.5 81.5t12.5 87t3 84.5t-3.5 73.5t-6 55.5l149 24q0 -4 3.5 -31.5t6 -71.5t1 -99.5t-10.5 -114.5
q-18 -90 30 -150zM1954 1025l-127 -129l-130 130l129 128zM2136 1298l-127 -129l-129 130l128 128zM2182 896l-127 130l126 128l130 -129z" />
    <glyph glyph-name="uni0636" unicode="&#x636;" horiz-adv-x="2877" arabic-form="isolated" 
d="M2691 698q47 -49 69 -112.5t18 -134.5q-5 -83 -47.5 -163.5t-124 -143.5t-203.5 -102t-287 -39q-18 0 -52.5 1t-80.5 4t-100 8.5t-110 15.5t-112 24.5t-105 35.5v-5q0 -344 -178.5 -522.5t-521.5 -178.5q-21 0 -56.5 2t-80.5 9t-96 21t-102 37t-99 57.5t-87 83.5
q-153 190 -84 508q13 63 36.5 129.5t46 122t39.5 92.5t19 40l136 -66l-7.5 -15.5t-19.5 -42t-26 -61.5t-28.5 -74t-27.5 -79.5t-21 -77.5q-53 -248 54 -381q29 -37 67.5 -62.5t79.5 -43t82 -27.5t76 -14.5t61 -6t38 -1.5q277 0 413.5 136.5t136.5 414.5q0 53 -8.5 106
t-21.5 101t-28 90t-28.5 72.5t-22 48.5t-9.5 19l133 70q1 -3 14 -28.5t30.5 -68t36.5 -99t33 -120.5q8 -10 19 -17.5t25 -14.5q31 40 80 97t111.5 119t137 124t157.5 111t171.5 79.5t180.5 30.5q83 0 153.5 -27.5t120.5 -81.5zM2628 460q2 40 -10 74t-36 60q-29 31 -71.5 47
t-93.5 16q-86 0 -178 -40.5t-182 -106t-173 -148t-152 -167.5q46 -11 95.5 -18.5t99.5 -13t98 -8t91 -2.5q128 0 222.5 26.5t157.5 69.5t95.5 98.5t36.5 112.5zM2478 1183l-136 -136l-136 137l135 135z" />
    <glyph glyph-name="uni0636.init" unicode="&#x636;" horiz-adv-x="1762" arabic-form="initial" 
d="M-81 74q0 32 22.5 54t53.5 22h5q75 2 133 30.5t101 71.5t71 95t43 101q3 15 7 25.5t6 18.5q12 48 17 80t5 33l150 -14q-1 -4 -3 -19.5t-6.5 -40.5t-11.5 -57t-18 -69q-5 -28 -3.5 -66.5t26.5 -75.5l12 -14q14 18 41.5 52.5t66 77.5t86.5 92t103.5 97.5t117 93t127 78.5
t133 54t134.5 20q70 0 123.5 -23t91 -61t60 -88t30.5 -105.5t1.5 -112.5t-25.5 -109q-28 -75 -90 -136.5t-150.5 -105t-199.5 -67t-237 -23.5q-210 0 -347.5 49t-203.5 149q-1 1 -1 4q-27 -38 -64 -72t-85 -59t-108 -39.5t-133 -14.5h-5q-31 0 -53.5 21t-22.5 53zM1479 368
q16 43 18.5 92.5t-12.5 92.5t-51 73.5t-96 35.5q-62 5 -127.5 -18.5t-131 -65t-128 -95.5t-117.5 -110t-100.5 -109.5t-76.5 -92.5q111 -38 285 -38q116 0 208 20.5t159.5 53.5t110 75t59.5 86zM1345 1156l-136 -136l-136 137l135 135z" />
    <glyph glyph-name="uni0636.medi" unicode="&#x636;" horiz-adv-x="1777" arabic-form="medial" 
d="M-80 74q0 31 21 52.5t50 23.5h4h6h62q80 3 134.5 34t90 76.5t54.5 98.5t28 99t10.5 78.5t1.5 36.5l151 1q0 -51 -9.5 -113t-32.5 -128q-2 -62 34 -99q5 -7 10.5 -11.5t11.5 -9.5q12 18 36.5 53t60.5 80t81.5 97t99.5 103.5t114.5 99t126 84t135 58t141.5 21.5
q76 0 146 -34.5t115 -95.5q18 -25 34 -59.5t23.5 -79.5t4 -101.5t-25.5 -124.5q-16 -50 -39.5 -89.5t-54.5 -71.5q23 -1 55 -1h63.5t59 -0.5t41.5 -0.5h36v-151h-36q-26 0 -67 0.5t-89 1.5t-99 2t-97 2.5t-83 2.5t-58 1q-80 -18 -161.5 -23t-150.5 -5h-72q-14 1 -26.5 1
h-23.5q-12 0 -39.5 1t-63.5 6t-79 14.5t-86 26t-83.5 41.5t-72.5 61q-5 5 -9.5 11t-8.5 11q-54 -64 -134.5 -107t-190.5 -48h-79q-29 1 -50 22.5t-21 51.5zM1495 358q23 73 19 131.5t-33 99.5q-29 39 -68.5 54.5t-70.5 15.5q-64 0 -129.5 -26t-128.5 -68t-122.5 -96
t-110.5 -110.5t-93 -111t-71 -96.5q42 -9 82.5 -13.5t67.5 -4.5h53q92 -1 185 3t174 24v2h1q1 0 1.5 -0.5t2.5 -0.5q87 22 151 68t90 129zM1399 1142l-136 -136l-136 137l135 135z" />
    <glyph glyph-name="uni0636.fina" unicode="&#x636;" horiz-adv-x="2882" arabic-form="final" 
d="M2762 151h130v-151h-146q-36 1 -71.5 9.5t-67 23t-56.5 34.5t-40 46q-80 -51 -191 -81.5t-255 -30.5q-14 -1 -44.5 -3t-74.5 -2q-45 0 -100.5 3.5t-114 12.5t-117.5 25.5t-112 42.5q-2 -341 -180.5 -518.5t-519.5 -177.5q-21 0 -56.5 2t-80.5 9t-96 21t-102 37
t-99.5 57.5t-87.5 83.5q-152 190 -83 508q13 63 36.5 129.5t46 122t39.5 92.5t19 40l135 -66l-7.5 -15.5t-19 -42t-26 -61.5t-29 -74t-27 -79.5t-20.5 -77.5q-54 -248 53 -381q30 -37 68 -62.5t79 -43t82 -27.5t76 -14.5t61.5 -6t38.5 -1.5q277 0 413 136.5t136 414.5
q0 53 -8.5 106t-21.5 101t-28.5 90t-28.5 72.5t-22 48.5t-9 19l133 70q1 -3 13.5 -28t29.5 -66.5t36 -96t33 -117.5q19 -24 45 -43q30 39 79 96.5t111.5 120t137.5 124.5t158 111.5t172.5 80.5t181.5 31q82 0 152.5 -27.5t120.5 -81.5q46 -49 68.5 -112.5t18.5 -134.5
q-4 -61 -26.5 -119.5t-66.5 -112.5q5 -27 40.5 -46.5t91.5 -19.5zM2062 151q127 0 222 26.5t158 69.5t95.5 98.5t35.5 112.5q5 82 -46 136q-29 29 -71 45t-93 16q-88 0 -182 -42t-185.5 -109.5t-176 -153t-153.5 -171.5q52 -14 108.5 -21t108.5 -9.5t97 -1.5t75 4h7z
M2418 1153l-136 -136l-136 137l135 135z" />
    <glyph glyph-name="uni0638" unicode="&#x638;" horiz-adv-x="1752" arabic-form="isolated" 
d="M1500 776q82 -60 119.5 -152.5t21.5 -199.5q-9 -62 -32.5 -122t-61.5 -111.5t-90.5 -92t-119.5 -63.5q-75 -25 -168.5 -38.5t-196 -17t-210.5 2.5t-211 19.5t-197 33.5t-170 45l36 66l35 67l191 -42q8 12 22 32.5t33.5 47t44 58t52.5 65.5q11 36 15.5 102.5t3 153.5
t-6.5 189t-13.5 208.5t-18 212t-19.5 199.5l150 16q3 -32 9.5 -88t13.5 -127.5t14 -155.5t12 -173t7.5 -179t0.5 -173q15 14 29.5 27.5t29.5 26.5q92 82 185 135t181 74t166.5 10t142.5 -56zM1493 447q9 64 -11.5 118t-68.5 87q-41 28 -95.5 32t-118.5 -16t-133.5 -62
t-139.5 -105q-47 -41 -91.5 -88.5t-84 -94t-73 -90t-57.5 -77.5q51 -8 122 -16.5t157 -8t184.5 14t204.5 48.5q51 16 87 43.5t60 61.5t38 73t20 80zM1451 1174l-136 -136l-136 137l135 135z" />
    <glyph glyph-name="uni0638.init" unicode="&#x638;" horiz-adv-x="1461" arabic-form="initial" 
d="M-78 75q0 32 22.5 54t53.5 22h137q4 6 22 30t44 58t57 74.5t61 79.5q12 33 16.5 97t4 148.5t-6 183.5t-13.5 202.5t-17.5 206.5t-19.5 195l150 15q3 -31 9 -84t13 -121.5t14.5 -149t12.5 -166t7.5 -172.5t0.5 -168q62 61 119 110t119.5 83.5t135.5 53t168 19.5
q39 0 79.5 -9t77 -27t67.5 -44t52 -60q25 -39 38 -84.5t14.5 -92.5t-7 -92t-26.5 -84q-56 -121 -145.5 -191.5t-205 -107t-253 -46.5t-289.5 -10q-86 0 -160 1t-146 1h-125h-5q-31 0 -53.5 21.5t-22.5 53.5zM1192 418q8 18 14 41.5t6.5 50t-5.5 54t-22 52.5q-11 17 -29 31.5
t-39 25.5t-43.5 17t-41.5 6q-78 -1 -137.5 -17.5t-114.5 -50.5t-112 -86.5t-129 -125.5q-17 -17 -43 -46.5t-55.5 -66.5t-60.5 -77t-58 -76q156 -1 294 3t250.5 29.5t195.5 80t130 155.5zM1146 1157l-136 -136l-136 137l135 135z" />
    <glyph glyph-name="uni0638.medi" unicode="&#x638;" horiz-adv-x="1446" arabic-form="medial" 
d="M-80 74q0 32 22.5 54.5t53.5 22.5h5h125l38 50q19 26 42 58.5t52 67.5q17 30 26 94t11.5 151t-1 192t-10.5 217t-17 226t-21 219l149 17q4 -33 10 -88t13 -126t13.5 -155t11 -173t5 -180.5t-3.5 -178.5q58 58 123 112t136.5 94.5t147.5 65t156 24.5q107 0 185.5 -51.5
t113.5 -146.5q22 -58 25 -123t-10.5 -127.5t-42.5 -117.5t-71 -92q-8 -8 -17.5 -15t-19.5 -14h289v-151h-1458h-5q-31 0 -53.5 21t-22.5 53zM1109 294q21 19 38 52.5t26 74t8 84t-15 81.5q-39 103 -159 103q-71 0 -140.5 -27.5t-135.5 -72.5t-127.5 -102.5t-115.5 -117.5
t-98.5 -117t-77.5 -101l402 -1q111 0 213.5 37.5t181.5 106.5zM1126 1181l-136 -136l-136 137l135 135z" />
    <glyph glyph-name="uni0638.fina" unicode="&#x638;" horiz-adv-x="1692" arabic-form="final" 
d="M1701 0q-194 0 -338.5 -0.5t-249.5 -0.5t-175 -0.5t-113 -0.5h-64h-28q-152 0 -267.5 11t-195 24.5t-122.5 25.5t-48 15l62 137q2 0 53.5 -15.5t144.5 -29.5q17 24 57.5 79t96.5 123q11 35 15.5 101t3 152t-6.5 187.5t-13.5 207.5t-18 211.5t-19.5 199.5l150 14
q3 -32 9 -87t13.5 -126t14.5 -154t12 -171t7.5 -177.5t0.5 -173.5q15 15 30 28.5t29 27.5q101 89 198 147.5t185.5 84t166 17.5t138.5 -51q40 -29 69.5 -68t47.5 -85.5t23 -99t-3 -107.5q-14 -89 -55.5 -164.5t-102.5 -130.5h293v-151zM937 149q30 1 63 2.5t70 6.5t78 16.5
t85 32.5q76 37 122.5 103.5t60.5 157.5q3 16 4 43t-5.5 57.5t-23 61t-49.5 53.5q-45 31 -106.5 25.5t-130 -35.5t-137 -77.5t-126.5 -99.5q-47 -42 -91 -88.5t-83.5 -92t-72.5 -87.5t-58 -76q34 -1 71.5 -2t79.5 -1h249zM1368 1193l-136 -136l-136 137l135 135z" />
    <glyph glyph-name="uni063A" unicode="&#x63a;" horiz-adv-x="1438" arabic-form="isolated" 
d="M915 312q-62 -8 -131 -34t-136.5 -64.5t-129.5 -86.5t-108.5 -99.5t-74.5 -104.5t-28 -102q0 -105 43.5 -181.5t113.5 -126.5t158 -74t177 -24q102 0 194.5 17.5t163.5 39t113 39.5t43 19l65 -136q-3 -2 -25.5 -12t-61.5 -24t-92 -30.5t-116.5 -30.5t-135.5 -23t-148 -9
q-80 0 -158.5 16t-149.5 47t-132 78t-105.5 108.5t-70 138.5t-25.5 168q0 76 36 154.5t97 150.5t141 134.5t167 107.5q-23 12 -44 25t-40 27q-63 50 -96 117t-33 148q0 53 27.5 117.5t81 121t132.5 94.5t182 38q54 0 103 -11.5t91 -29.5t76.5 -38.5t59.5 -39t39 -31
t16 -14.5l-105 -106l53 53l-53 -53q-1 0 -23.5 18.5t-60.5 41t-88.5 41.5t-107.5 19q-70 0 -121 -25t-84 -60.5t-49.5 -73.5t-17.5 -64q2 -51 19 -83.5t52 -61.5q50 -39 126 -57.5t173 -16.5h21q118 3 259 39l35 -147q-92 -14 -150.5 -22.5t-92.5 -13t-48 -6t-16 -2.5z
M992 1401l-136 -136l-136 137l135 135z" />
    <glyph glyph-name="uni063A.init" unicode="&#x63a;" horiz-adv-x="1076" arabic-form="initial" 
d="M-75 74q0 32 22.5 54.5t52.5 22.5h6q34 0 79.5 1t93.5 3t92.5 4.5t76.5 5.5q-17 11 -29.5 21t-23.5 20q-38 36 -65 77.5t-41.5 85.5t-16 88.5t11.5 85.5q98 311 409 311q48 0 93 -10.5t85 -26.5t73.5 -35t58 -35.5t39 -28t16.5 -12.5l-50 -58l-49 -56l-22.5 17.5
t-59.5 38t-85 38t-99 17.5q-37 0 -75 -6.5t-73.5 -28t-65.5 -62t-51 -108.5q-5 -16 -4.5 -37.5t8.5 -46t24 -49.5t42 -49q17 -16 48 -36t78.5 -35t112.5 -20t149 10q42 8 89 21.5t100 34.5l56 -140q-58 -22 -110 -37t-100 -24q-5 -1 -42 -8.5t-98 -17.5t-141 -21
t-169.5 -20.5t-184.5 -16t-186 -6.5q-30 0 -52.5 21t-22.5 53zM657 1187l-136 -136l-136 137l135 135z" />
    <glyph glyph-name="uni063A.medi" unicode="&#x63a;" horiz-adv-x="1195" arabic-form="medial" 
d="M-74 74q0 31 22 53t51 24h96q90 0 157.5 5t119 13.5t90 21t70.5 27.5q-69 64 -134 127.5t-116 115t-82.5 84.5t-34.5 36l4 108q2 1 17 13.5t42.5 30t67.5 37.5t90.5 37t111.5 28.5t132 11.5q41 0 89.5 -1t97 -8.5t93.5 -23t80 -44.5t56 -73.5t21 -109.5q0 -43 -20 -92
t-56.5 -100t-87 -101t-111.5 -95q22 -12 63.5 -21t96.5 -15t120 -9t135 -3v-151q-212 0 -349.5 29t-205.5 82q-46 -26 -94.5 -46t-112 -34.5t-148 -22.5t-202.5 -8h-96q-29 1 -51 21.5t-22 52.5zM334 622q28 -29 66 -67t81.5 -81t91.5 -88.5t96 -88.5q64 42 110.5 86
t76.5 83.5t44.5 71t14.5 49.5q0 25 -7 45.5t-35.5 35t-85.5 22t-157 7.5q-50 0 -94 -7t-81 -18t-67.5 -24.5t-53.5 -25.5zM808 1197l-136 -136l-136 137l135 135z" />
    <glyph glyph-name="uni063A.fina" unicode="&#x63a;" horiz-adv-x="1351" arabic-form="final" 
d="M1188 -488l64 -137q-4 -2 -34 -20t-87.5 -38.5t-142.5 -37.5t-199 -17q-120 0 -235 35.5t-205.5 106t-146 174t-55.5 240.5q0 100 39.5 179t104.5 142t149 113.5t173 92.5q-54 52 -101.5 99.5t-82.5 84t-55.5 58t-21.5 22.5v102q2 2 18 17.5t45 37.5t71 46.5t95.5 46
t117.5 35.5t139 14q256 0 360 -112q64 -71 57 -168q-5 -59 -30.5 -102.5t-65.5 -77t-90 -60.5t-103 -52q-20 -10 -40.5 -19.5t-41.5 -20.5q2 0 2 -0.5t1 -0.5l10 -10l10 -10q31 -27 67 -49t86.5 -38t119.5 -25.5t165 -11.5l16 -2v-149h-21q-109 3 -191 15.5t-144.5 33.5
t-110.5 50t-88 66l-10 8t-10 9q-14 14 -28 26.5t-28 24.5q-100 -45 -180 -90.5t-136 -95t-86 -106t-30 -123.5q0 -104 43.5 -180.5t113.5 -126.5t157.5 -74t176.5 -24q101 0 175.5 15t124 33.5t74 34t25.5 16.5zM838 757q-56 0 -105 -10t-89.5 -25t-72.5 -33.5t-55 -35.5
q21 -21 48.5 -49t60 -60.5t69 -68t74.5 -71.5q35 20 68 36.5t64 30.5q54 26 92.5 46.5t63 39.5t36.5 38.5t14 43.5q1 33 -19 55q-7 7 -22.5 18t-44.5 21t-73.5 17t-108.5 7zM943 1232l-136 -136l-136 137l135 135z" />
    <glyph glyph-name="uni06A9.init" unicode="&#x6a9;" horiz-adv-x="1195" arabic-form="initial" 
d="M-76 75q0 32 22.5 54t52.5 22h146q58 -1 110 -0.5t96 3.5t80 10.5t62 21.5q34 18 55 49.5t32 67t14.5 71t3.5 62.5q0 52 -23 109.5t-59.5 114.5t-82.5 111.5t-92.5 101.5t-89 84t-71.5 60l-37 30l36 150l844 365l60 -139l-760 -329q31 -27 75 -67t91.5 -91t94 -110
t83 -123.5t59.5 -132t23 -134.5q0 -139 -47.5 -237t-138.5 -146q-34 -17 -72.5 -27.5t-82 -16t-92 -7t-102.5 -1.5h-209h-6q-30 0 -52.5 21t-22.5 53z" />
    <glyph glyph-name="uni06A9.medi" unicode="&#x6a9;" horiz-adv-x="1251" arabic-form="medial" 
d="M-76 75q0 32 22.5 54t53.5 22q79 0 151 2.5t129 6.5t96 9t53 11q129 58 129 209q0 60 -19.5 121t-52.5 120t-75.5 114.5t-88 106.5t-91 95t-84.5 80l-30 29l28 137l852 378l60 -137l-763 -339q98 -93 167 -173.5t115 -150t72.5 -128.5t40.5 -109q34 -97 88 -168t121 -118
t143.5 -71t155.5 -25h65v-150h-66q-165 0 -292.5 61t-222.5 178q-26 -66 -74.5 -117t-117.5 -80q-21 -10 -56 -16.5t-78 -11t-91 -7.5t-95 -4.5t-89.5 -2t-74.5 -0.5h-5q-31 0 -53.5 21t-22.5 53z" />
    <glyph glyph-name="uni0641" unicode="&#x641;" horiz-adv-x="2003" arabic-form="isolated" 
d="M1745 912q43 -51 74.5 -115t49.5 -135.5t21.5 -148.5t-8.5 -154t-60 -133.5t-120 -96t-161.5 -64t-184 -38.5t-188.5 -19t-174 -5h-66t-57 2l-6 1q-254 0 -420 57.5t-246 172.5q-33 47 -49.5 97.5t-20 101.5t2 100.5t16 94t24 82.5t23.5 67l5 17l143 -51l-7 -18
q-14 -37 -30 -87t-23.5 -105t-0.5 -110.5t40 -101.5q57 -83 195.5 -125t349.5 -42h10q101 -4 201.5 -1t193 13.5t173 28t142 44t99.5 61t46 78.5q-45 -11 -101.5 -21t-116.5 -10q-209 5 -301 122q-85 106 -47 280q12 53 40 104t71 91.5t99.5 65.5t127.5 25q66 0 127.5 -32.5
t113.5 -92.5zM1515 500q32 0 64 3.5t61 9.5t54.5 12.5t43.5 12.5q-9 81 -36 152.5t-72 123.5q-29 35 -61.5 53t-64.5 18q-45 0 -78.5 -17.5t-57 -43t-37 -54.5t-18.5 -53q-23 -102 17 -154q24 -29 71.5 -45t113.5 -18zM1627 1370l-136 -136l-136 137l135 135z" />
    <glyph glyph-name="uni0641.init" unicode="&#x641;" horiz-adv-x="999" arabic-form="initial" 
d="M-76 75q0 32 22.5 54t52.5 22h10q82 0 165 3.5t160 12t144.5 24t119.5 39t85.5 56.5t42.5 77q-45 -11 -101.5 -21.5t-116.5 -8.5q-104 2 -180 32.5t-121 88.5q-42 53 -54 123.5t7 156.5q12 53 40 104.5t70.5 92t99.5 65t128 24.5q66 0 128 -33t115 -96q44 -51 75 -114.5
t48.5 -135t20.5 -147.5t-9 -152q-12 -75 -52.5 -129t-100 -92t-132 -61.5t-149 -37t-151.5 -18t-139 -4.5h-153q-30 0 -52.5 21.5t-22.5 53.5zM509 484q32 -1 64 2.5t61.5 9.5t54.5 13t43 13q-8 79 -34.5 150t-70.5 123q-31 35 -64 54.5t-65 19.5q-45 0 -78.5 -17.5t-57 -43
t-37 -54.5t-18.5 -53q-23 -104 17 -154q24 -29 71.5 -45.5t113.5 -17.5zM613 1415l-136 -136l-136 137l135 135z" />
    <glyph glyph-name="uni0641.medi" unicode="&#x641;" horiz-adv-x="1049" arabic-form="medial" 
d="M-74 74q0 32 22.5 54t52.5 22q44 0 98.5 0.5t105 0.5h91.5h58h24q-47 38 -84 86t-58 107q-16 43 -19.5 90.5t4 95.5t26.5 94t48 87q51 73 122 112t150 39q66 0 122 -24.5t100 -74.5q29 -32 50.5 -71t34.5 -83t17 -92t-1 -96q-8 -81 -43.5 -148.5t-92.5 -118.5
q13 -2 25.5 -2.5t23.5 -0.5h263v-151h-244q-24 0 -54.5 2.5t-63 8t-66 13.5t-63.5 19q-54 -21 -118.5 -32t-120.5 -11h-329h-6q-30 0 -52.5 21t-22.5 53zM740 437q7 64 -10 125t-53 100q-43 50 -110 50q-29 0 -52.5 -9t-42 -22.5t-32.5 -28.5t-23 -28q-18 -26 -30 -55
t-17 -59t-3 -59.5t11 -55.5q11 -31 30.5 -58.5t45.5 -51t56.5 -43t63.5 -35.5q67 37 113 94.5t53 135.5zM695 1209l-136 -136l-136 137l135 135z" />
    <glyph glyph-name="uni0641.fina" unicode="&#x641;" horiz-adv-x="2044" arabic-form="final" 
d="M2054 150v-150q-32 0 -81.5 3.5t-109.5 13t-126 25.5t-129 40q-121 -42 -279.5 -62t-359.5 -20q-106 0 -213.5 7t-203.5 29.5t-175 64.5t-129 113q-69 99 -68 240t72 340l142 -52q-57 -158 -62.5 -267t39.5 -176q27 -39 76 -67t122.5 -46t172.5 -27t227 -9q112 0 228 8
t222 29l-33 30q-103 103 -103 241q0 71 23.5 142t67 127.5t106 92t140.5 35.5q61 0 121 -23.5t108 -69t77.5 -112.5t29.5 -155q0 -194 -157 -315q69 -14 136.5 -22t118.5 -8zM1609 245q89 40 142.5 101t53.5 149q0 57 -18.5 97t-46.5 65t-60 36t-60 11q-46 0 -80.5 -24
t-58 -60.5t-35.5 -79.5t-12 -82q0 -38 14 -71t45 -64q23 -22 52 -41.5t64 -36.5zM1762 1194l-136 -136l-136 137l135 135z" />
    <glyph glyph-name="veh.isol" unicode="&#x6a4;" horiz-adv-x="1995" arabic-form="isolated" 
d="M1745 912q43 -51 74.5 -115t49.5 -135.5t21.5 -148.5t-8.5 -154t-60 -133.5t-120 -96t-161.5 -64t-184 -38.5t-188.5 -19t-174 -5h-66t-57 2l-6 1q-254 0 -420 57.5t-246 172.5q-33 47 -49.5 97.5t-20 101.5t2 100.5t16 94t24 82.5t23.5 67l5 17l143 -51l-7 -18
q-14 -37 -30 -87t-23.5 -105t-0.5 -110.5t40 -101.5q57 -83 195.5 -125t349.5 -42h10q101 -4 201.5 -1t193 13.5t173 28t142 44t99.5 61t46 78.5q-45 -11 -101.5 -21t-116.5 -10q-209 5 -301 122q-85 106 -47 280q12 53 40 104t71 91.5t99.5 65.5t127.5 25q66 0 127.5 -32.5
t113.5 -92.5zM1515 500q32 0 64 3.5t61 9.5t54.5 12.5t43.5 12.5q-9 81 -36 152.5t-72 123.5q-29 35 -61.5 53t-64.5 18q-45 0 -78.5 -17.5t-57 -43t-37 -54.5t-18.5 -53q-23 -102 17 -154q24 -29 71.5 -45t113.5 -18zM1459 1309l-127 -129l-130 130l129 128zM1641 1582
l-127 -129l-129 130l128 128zM1687 1180l-127 130l126 128l130 -129z" />
    <glyph glyph-name="veh.init" unicode="&#x6a4;" horiz-adv-x="974" arabic-form="initial" 
d="M-76 75q0 32 22.5 54t52.5 22h10q82 0 165 3.5t160 12t144.5 24t119.5 39t85.5 56.5t42.5 77q-45 -11 -101.5 -21.5t-116.5 -8.5q-104 2 -180 32.5t-121 88.5q-42 53 -54 123.5t7 156.5q12 53 40 104.5t70.5 92t99.5 65t128 24.5q66 0 128 -33t115 -96q44 -51 75 -114.5
t48.5 -135t20.5 -147.5t-9 -152q-12 -75 -52.5 -129t-100 -92t-132 -61.5t-149 -37t-151.5 -18t-139 -4.5h-153q-30 0 -52.5 21.5t-22.5 53.5zM509 484q32 -1 64 2.5t61.5 9.5t54.5 13t43 13q-8 79 -34.5 150t-70.5 123q-31 35 -64 54.5t-65 19.5q-45 0 -78.5 -17.5t-57 -43
t-37 -54.5t-18.5 -53q-23 -104 17 -154q24 -29 71.5 -45.5t113.5 -17.5zM394 1266l-127 -129l-130 130l129 128zM576 1539l-127 -129l-129 130l128 128zM622 1137l-127 130l126 128l130 -129z" />
    <glyph glyph-name="veh.medi" unicode="&#x6a4;" horiz-adv-x="1054" arabic-form="medial" 
d="M-74 74q0 32 22.5 54t52.5 22q44 0 98.5 0.5t105 0.5h91.5h58h24q-47 38 -84 86t-58 107q-16 43 -19.5 90.5t4 95.5t26.5 94t48 87q51 73 122 112t150 39q66 0 122 -24.5t100 -74.5q29 -32 50.5 -71t34.5 -83t17 -92t-1 -96q-8 -81 -43.5 -148.5t-92.5 -118.5
q13 -2 25.5 -2.5t23.5 -0.5h263v-151h-244q-24 0 -54.5 2.5t-63 8t-66 13.5t-63.5 19q-54 -21 -118.5 -32t-120.5 -11h-329h-6q-30 0 -52.5 21t-22.5 53zM740 437q7 64 -10 125t-53 100q-43 50 -110 50q-29 0 -52.5 -9t-42 -22.5t-32.5 -28.5t-23 -28q-18 -26 -30 -55
t-17 -59t-3 -59.5t11 -55.5q11 -31 30.5 -58.5t45.5 -51t56.5 -43t63.5 -35.5q67 37 113 94.5t53 135.5zM443 1149l-127 -129l-130 130l129 128zM625 1422l-127 -129l-129 130l128 128zM671 1020l-127 130l126 128l130 -129z" />
    <glyph glyph-name="veh.fina" unicode="&#x6a4;" horiz-adv-x="2044" arabic-form="final" 
d="M2054 150v-150q-32 0 -81.5 3.5t-109.5 13t-126 25.5t-129 40q-121 -42 -279.5 -62t-359.5 -20q-106 0 -213.5 7t-203.5 29.5t-175 64.5t-129 113q-69 99 -68 240t72 340l142 -52q-57 -158 -62.5 -267t39.5 -176q27 -39 76 -67t122.5 -46t172.5 -27t227 -9q112 0 228 8
t222 29l-33 30q-103 103 -103 241q0 71 23.5 142t67 127.5t106 92t140.5 35.5q61 0 121 -23.5t108 -69t77.5 -112.5t29.5 -155q0 -194 -157 -315q69 -14 136.5 -22t118.5 -8zM1609 245q89 40 142.5 101t53.5 149q0 57 -18.5 97t-46.5 65t-60 36t-60 11q-46 0 -80.5 -24
t-58 -60.5t-35.5 -79.5t-12 -82q0 -38 14 -71t45 -64q23 -22 52 -41.5t64 -36.5zM1495 1147l-127 -129l-130 130l129 128zM1677 1420l-127 -129l-129 130l128 128zM1723 1018l-127 130l126 128l130 -129z" />
    <glyph glyph-name="uni0642.init" unicode="&#x642;" horiz-adv-x="994" arabic-form="initial" 
d="M-76 75q0 32 22.5 54t52.5 22h10q82 0 165 3.5t160 12t144.5 24t119.5 39t85.5 56.5t42.5 77q-45 -11 -101.5 -21.5t-116.5 -8.5q-104 2 -180 32.5t-121 88.5q-42 53 -54 123.5t7 156.5q12 53 40 104.5t70.5 92t99.5 65t128 24.5q66 0 128 -33t115 -96q44 -51 75 -114.5
t48.5 -135t20.5 -147.5t-9 -152q-12 -75 -52.5 -129t-100 -92t-132 -61.5t-149 -37t-151.5 -18t-139 -4.5h-153q-30 0 -52.5 21.5t-22.5 53.5zM509 484q32 -1 64 2.5t61.5 9.5t54.5 13t43 13q-8 79 -34.5 150t-70.5 123q-31 35 -64 54.5t-65 19.5q-45 0 -78.5 -17.5t-57 -43
t-37 -54.5t-18.5 -53q-23 -104 17 -154q24 -29 71.5 -45.5t113.5 -17.5zM415 1332l-134 -133l-137 135l135 136zM758 1332l-135 -133l-136 135l136 136z" />
    <glyph glyph-name="uni0642.medi" unicode="&#x642;" horiz-adv-x="1054" arabic-form="medial" 
d="M-74 74q0 32 22.5 54t52.5 22q44 0 98.5 0.5t105 0.5h91.5h58h24q-47 38 -84 86t-58 107q-16 43 -19.5 90.5t4 95.5t26.5 94t48 87q51 73 122 112t150 39q66 0 122 -24.5t100 -74.5q29 -32 50.5 -71t34.5 -83t17 -92t-1 -96q-8 -81 -43.5 -148.5t-92.5 -118.5
q13 -2 25.5 -2.5t23.5 -0.5h263v-151h-244q-24 0 -54.5 2.5t-63 8t-66 13.5t-63.5 19q-54 -21 -118.5 -32t-120.5 -11h-329h-6q-30 0 -52.5 21t-22.5 53zM740 437q7 64 -10 125t-53 100q-43 50 -110 50q-29 0 -52.5 -9t-42 -22.5t-32.5 -28.5t-23 -28q-18 -26 -30 -55
t-17 -59t-3 -59.5t11 -55.5q11 -31 30.5 -58.5t45.5 -51t56.5 -43t63.5 -35.5q67 37 113 94.5t53 135.5zM514 1182l-134 -133l-137 135l135 136zM857 1182l-135 -133l-136 135l136 136z" />
    <glyph glyph-name="uni0642" unicode="&#x642;" horiz-adv-x="1617" arabic-form="isolated" 
d="M1504 98v-21q0 -346 -177 -524t-523 -178q-20 0 -55.5 2t-80.5 9t-96 21t-102 37.5t-99.5 57.5t-87.5 83q-152 190 -83 509q13 62 34 128t40.5 121.5t34.5 92.5t16 40l140 -59l-6.5 -16t-17 -43t-23.5 -62t-26 -74.5t-25 -81t-20 -79.5q-54 -248 54 -380q30 -37 68 -62.5
t79 -43t82 -27.5t75.5 -15t61 -6.5t37.5 -1.5q259 0 394.5 119t152.5 361h-37.5t-42.5 -1h-144q-100 0 -169 30t-111.5 77.5t-61.5 106t-19 115.5q0 77 27 156.5t74 144t110.5 105.5t137.5 41q87 0 156.5 -45.5t119 -132.5t78.5 -214t35 -290zM1271 155h79q-3 40 -9.5 90.5
t-18 103.5t-29 103.5t-42.5 90t-58.5 63.5t-77.5 24q-36 0 -71.5 -26.5t-63.5 -69t-45.5 -95.5t-17.5 -106q0 -25 7 -56t29.5 -58t63.5 -45.5t110 -18.5h144zM1068 1105l-134 -133l-137 135l135 136zM1411 1105l-135 -133l-136 135l136 136z" />
    <glyph glyph-name="uni0642.fina" unicode="&#x642;" horiz-adv-x="1602" arabic-form="final" 
d="M1505 151h104v-151h-105q-19 -311 -195 -470t-502 -159q-21 0 -56.5 2t-80.5 9t-96 20.5t-102 37t-99.5 58t-87.5 83.5q-152 190 -83 509q13 62 34 128t41 121t34.5 92t16.5 41l139 -59q-1 0 -15 -34.5t-33 -87t-38.5 -115t-31.5 -119.5q-54 -249 53 -382
q30 -37 68 -62.5t79 -42.5t82 -27t76 -15t61.5 -6t38.5 -1q258 0 393.5 118.5t152.5 360.5h-223q-100 0 -169 30t-112 77t-62 106t-19 116q0 51 12 104.5t34.5 103t54 93t70 76t83.5 51.5t94 19q76 0 133 -30.5t99 -80.5t70.5 -115t46.5 -134.5t27 -138.5t13 -126zM1130 151
h224q-3 39 -9.5 89.5t-18 103t-29 103t-43 90t-59.5 63.5t-79 24q-35 0 -70.5 -26.5t-63.5 -68.5t-45.5 -95t-17.5 -105q0 -25 7 -56t29 -58t64 -45.5t111 -18.5zM1103 1109l-134 -133l-137 135l135 136zM1446 1109l-135 -133l-136 135l136 136z" />
    <glyph glyph-name="uni0646.init" unicode="&#x646;" horiz-adv-x="673" arabic-form="initial" 
d="M-76 74q0 32 22.5 54.5t53.5 22.5h199q70 -1 114 1t70 11t39.5 27.5t23.5 51.5q6 20 5 54.5t-8.5 78t-19 92.5t-26 99.5t-30.5 98.5t-31 88l141 53q7 -19 21.5 -60t31 -95t33 -117t27 -124t12 -116.5t-10.5 -94.5q-21 -69 -55.5 -108.5t-79 -60t-98 -25.5t-112.5 -5h-240
h-6q-31 0 -53.5 21t-22.5 53zM491 1175l-136 -136l-136 137l135 135z" />
    <glyph glyph-name="uni0646.medi" unicode="&#x646;" horiz-adv-x="823" arabic-form="medial" 
d="M-78 75q0 32 22.5 53.5t52.5 21.5q128 0 213.5 25t119.5 75q26 37 32.5 85.5t3 95.5t-14 87.5t-19.5 61.5l140 55q1 -3 10 -27.5t18 -64t14.5 -90.5t0.5 -105h1q-2 -65 41 -108q24 -25 55 -42.5t66.5 -28t75 -15t79.5 -4.5v-150q-54 0 -107.5 7t-103.5 23t-94 41.5
t-80 63.5l-9 10q-25 -39 -68 -67t-100 -45t-125 -25t-143 -8h-6q-30 0 -52.5 21.5t-22.5 53.5zM536 1007l-136 -136l-136 137l135 135z" />
    <glyph glyph-name="uni0646" unicode="&#x646;" horiz-adv-x="1572" arabic-form="isolated" 
d="M1309 624q1 -3 13 -27.5t28.5 -64t35.5 -92t35 -112t26.5 -123t10.5 -125.5q0 -346 -178 -524.5t-521 -178.5q-21 0 -56.5 2t-80.5 9t-95.5 21t-102 37t-99.5 57.5t-88 83.5q-152 190 -83 508q9 42 24 89t32.5 93.5t35 89t32.5 75.5t24.5 53.5t11.5 23.5l136 -66
q-1 0 -9.5 -18.5t-22.5 -49.5t-31 -71t-33.5 -83t-30.5 -86.5t-22 -81.5q-55 -248 54 -381q30 -37 68 -62.5t79 -42.5t82 -27t76 -15t61 -6t38 -1q277 0 413 136t136 416q0 53 -10 108.5t-24.5 108t-31.5 99.5t-32 82t-25 56t-10 22zM949 510l-136 -136l-136 137l135 135z
" />
    <glyph glyph-name="uni0646.fina" unicode="&#x646;" horiz-adv-x="1772" arabic-form="final" 
d="M1482 353q16 -42 42.5 -79t64 -64t85.5 -43t106 -16v-151q-32 0 -68 0.5t-71 6t-66.5 19.5t-53.5 41q-4 -336 -182 -510t-518 -174q-20 0 -55.5 2t-80 9t-95.5 21t-102 37t-99.5 57.5t-87.5 83.5q-152 190 -83 508q9 42 24 89t32 93.5t34.5 89t32 75.5t24 53.5t10.5 22.5
l134 -66l-8.5 -18.5t-22 -49t-29.5 -70.5t-32 -83t-30 -86.5t-22 -81.5q-54 -248 53 -381q30 -37 68 -62.5t79 -42.5t82 -27t75.5 -15t60.5 -6t38 -1q278 0 414.5 137t136.5 415q0 52 -9.5 107t-24 107t-31.5 98t-31.5 80.5t-24.5 55t-10 21.5l135 68q1 -3 11 -27t25 -62
t33.5 -85.5t36.5 -95.5zM991 514l-136 -136l-136 137l135 135z" />
    <glyph glyph-name="uni06C0" unicode="&#x6c0;" horiz-adv-x="970" arabic-form="isolated" 
d="M493 1q-69 0 -136 20t-120.5 59t-86.5 96t-33 132q0 72 17.5 139t43.5 124.5t55.5 104.5t53.5 80q-11 3 -16.5 5t-6.5 2l40 146q4 -1 31 -9.5t68 -25t92 -42t103.5 -60t102 -79.5t88.5 -100.5t62.5 -123t23.5 -147.5q0 -55 -15.5 -112t-57.5 -103.5t-116.5 -76
t-192.5 -29.5zM432 694q-16 -19 -43.5 -57t-54.5 -89t-46.5 -112.5t-19.5 -127.5q0 -42 23 -72t56.5 -49t73 -27.5t72.5 -8.5q63 0 107 9t71.5 29.5t40 53t12.5 79.5q0 69 -27 126.5t-69.5 103.5t-94.5 81.5t-101 60.5zM687 1171q-84 -33 -150 -37q-26 -5 -64 -18.5
t-79.5 -31t-82.5 -36.5t-72 -35l-49 95q15 8 55.5 28t91.5 41q-11 7 -18.5 13.5t-13.5 11.5q-42 38 -57.5 88t-1.5 96q51 165 218 165q37 0 70.5 -11t59 -24.5t42 -26t20.5 -15.5l-71 -82q-6 6 -18.5 14.5t-29 17t-35.5 14.5t-38 6q-20 0 -37 -3.5t-31.5 -13.5t-26.5 -27.5
t-21 -45.5q-4 -14 3 -34t27 -40q7 -6 19 -14t30 -14.5t42 -10t55 -1.5q6 2 11 2t10 1q47 6 102 28z" />
    <glyph glyph-name="uni06C0.fina" unicode="&#x6c0;" horiz-adv-x="1105" arabic-form="final" 
d="M1073 151h46v-150h-49q-68 0 -127.5 14t-108 42t-83.5 69t-52 94q-56 -32 -126 -52.5t-146 -20.5q-18 0 -36.5 1.5t-36.5 3.5q-60 10 -109 43t-80 86q-29 51 -34.5 109.5t15.5 113.5q15 42 49.5 83.5t79 79.5t95 72.5t97.5 62.5t86 49t62 32l-16 128l150 18l79 -660
q12 -55 29.5 -96t46 -68t69.5 -40.5t100 -13.5zM377 301q49 -8 95.5 -1t86 21t70 31.5t46.5 32.5l-41 339q-54 -29 -111 -64t-106 -72t-84.5 -72t-45.5 -64q-9 -23 -6.5 -48t15.5 -47q28 -48 81 -56zM874 1281q-84 -33 -150 -37q-26 -5 -64 -18.5t-79.5 -31t-82.5 -36.5
t-72 -35l-49 95q15 8 55.5 28t91.5 41q-11 7 -18.5 13.5t-13.5 11.5q-42 38 -57.5 88t-1.5 96q51 165 218 165q37 0 70.5 -11t59 -24.5t42 -26t20.5 -15.5l-71 -82q-6 6 -18.5 14.5t-29 17t-35.5 14.5t-38 6q-20 0 -37 -3.5t-31.5 -13.5t-26.5 -27.5t-21 -45.5q-4 -14 3 -34
t27 -40q7 -6 19 -14t30 -14.5t42 -10t55 -1.5q6 2 11 2t10 1q47 6 102 28z" />
    <glyph glyph-name="uni0624" unicode="&#x624;" horiz-adv-x="984" arabic-form="isolated" 
d="M302 -652l-46 145q4 1 38.5 14t84.5 39.5t108 67.5t109.5 97.5t89.5 130t48 164.5q-18 -1 -39 -1h-44h-143q-100 0 -169 30t-112 77t-62 106t-19 116q0 51 12 104.5t34.5 103t54 93t70 76t83.5 51.5t94 19q84 0 145.5 -37t104.5 -97t70.5 -135.5t43 -152.5t22 -149
t8.5 -124v-3q3 -100 -19.5 -184.5t-61.5 -154t-90.5 -126t-106 -100t-107.5 -75t-96 -52t-71.5 -31t-33.5 -12.5zM494 629q-35 0 -70.5 -26.5t-63.5 -68.5t-45.5 -94.5t-17.5 -105.5q0 -25 7 -56t29 -58t64 -45.5t111 -18.5h143h81q-3 40 -9.5 90.5t-18 103t-29 103
t-43 89.5t-59.5 63t-79 24zM696 1078q-84 -33 -150 -37q-26 -5 -64 -18.5t-79.5 -31t-82.5 -36.5t-72 -35l-49 95q15 8 55.5 28t91.5 41q-11 7 -18.5 13.5t-13.5 11.5q-42 38 -57.5 88t-1.5 96q51 165 218 165q37 0 70.5 -11t59 -24.5t42 -26t20.5 -15.5l-71 -82
q-6 6 -18.5 14.5t-29 17t-35.5 14.5t-38 6q-20 0 -37 -3.5t-31.5 -13.5t-26.5 -27.5t-21 -45.5q-4 -14 3 -34t27 -40q7 -6 19 -14t30 -14.5t42 -10t55 -1.5q6 2 11 2t10 1q47 6 102 28z" />
    <glyph glyph-name="uni0624.fina" unicode="&#x624;" horiz-adv-x="1009" arabic-form="final" 
d="M913 151h107v-151h-106q-7 -89 -35 -164t-69 -137.5t-91 -112.5t-102 -89t-101.5 -67.5t-89.5 -47t-66 -28t-30 -11.5l-46 143q5 2 39.5 15.5t84.5 40t108 67.5t109.5 97.5t89.5 129.5t48 164h-84h-143q-100 0 -169 30t-112 77t-62 106t-19 116q0 51 12 104.5t34.5 103
t54 93t70 76t83.5 51.5t94 19q76 0 133 -30.5t99 -80.5t70.5 -115t47 -134.5t28 -138t13.5 -126.5zM679 151h83q-3 40 -9.5 90.5t-18.5 103t-30 103t-43.5 89.5t-59.5 63t-79 24q-35 0 -70.5 -26.5t-63.5 -68.5t-45.5 -94.5t-17.5 -105.5q0 -25 7 -56t29.5 -58t64 -45.5
t110.5 -18.5h143zM766 1071q-84 -33 -150 -37q-26 -5 -64 -18.5t-79.5 -31t-82.5 -36.5t-72 -35l-49 95q15 8 55.5 28t91.5 41q-11 7 -18.5 13.5t-13.5 11.5q-42 38 -57.5 88t-1.5 96q51 165 218 165q37 0 70.5 -11t59 -24.5t42 -26t20.5 -15.5l-71 -82q-6 6 -18.5 14.5
t-29 17t-35.5 14.5t-38 6q-20 0 -37 -3.5t-31.5 -13.5t-26.5 -27.5t-21 -45.5q-4 -14 3 -34t27 -40q7 -6 19 -14t30 -14.5t42 -10t55 -1.5q6 2 11 2t10 1q47 6 102 28z" />
    <glyph glyph-name="uni0649.init" unicode="&#x649;" horiz-adv-x="703" arabic-form="initial" 
d="M-76 74q0 32 22.5 54.5t53.5 22.5h199q70 -1 114 1t70 11t39.5 27.5t23.5 51.5q6 20 5 54.5t-8.5 78t-19 92.5t-26 99.5t-30.5 98.5t-31 88l141 53q7 -19 21.5 -60t31 -95t33 -117t27 -124t12 -116.5t-10.5 -94.5q-21 -69 -55.5 -108.5t-79 -60t-98 -25.5t-112.5 -5h-240
h-6q-31 0 -53.5 21t-22.5 53z" />
    <glyph glyph-name="uni0649.medi" unicode="&#x649;" horiz-adv-x="843" arabic-form="medial" 
d="M-61 75q0 32 22.5 53.5t52.5 21.5q128 0 213.5 25t119.5 75q26 37 32.5 85.5t3 95.5t-14 87.5t-19.5 61.5l140 55q1 -3 10 -27.5t18 -64t14.5 -90.5t0.5 -105h1q-2 -65 41 -108q24 -25 55 -42.5t66.5 -28t75 -15t79.5 -4.5v-150q-54 0 -107.5 7t-103.5 23t-94 41.5
t-80 63.5l-9 10q-25 -39 -68 -67t-100 -45t-125 -25t-143 -8h-6q-30 0 -52.5 21.5t-22.5 53.5z" />
    <glyph glyph-name="uni064A.init" unicode="&#x64a;" horiz-adv-x="778" arabic-form="initial" 
d="M-76 74q0 32 22.5 54t53.5 22h259q70 -1 117.5 1t78 11t47.5 28t27 52q6 20 5 54.5t-8.5 78t-19 92.5t-26 99.5t-30.5 98.5t-31 88l141 53q7 -19 21.5 -60t31 -95t33 -117t27 -124t12 -116.5t-10.5 -94.5q-21 -69 -59 -108.5t-87 -60t-106 -25.5t-116 -5h-300h-6
q-31 0 -53.5 21t-22.5 53zM329 -443l-134 -133l-137 135l135 136zM672 -443l-135 -133l-136 135l136 136z" />
    <glyph glyph-name="uni064A.medi" unicode="&#x64a;" horiz-adv-x="879" arabic-form="medial" 
d="M-71 75q0 32 22.5 53.5t52.5 21.5q49 0 104.5 5t105 16.5t88 30.5t55.5 48q23 39 29.5 87.5t3 95.5t-12.5 86.5t-18 60.5l140 55q1 -3 10 -27.5t18 -64t14.5 -90.5t0.5 -105h1q-2 -65 41 -108q24 -25 52.5 -42.5t64.5 -28t81 -15t101 -4.5v-150q-128 0 -232 30t-176 105
l-9 10q-30 -51 -77 -80.5t-106.5 -43.5t-128.5 -17.5t-144 -3.5h-6q-30 0 -52.5 21.5t-22.5 53.5zM348 -451l-134 -133l-137 135l135 136zM691 -451l-135 -133l-136 135l136 136z" />
    <glyph glyph-name="uni064A" unicode="&#x64a;" horiz-adv-x="1798" arabic-form="isolated" 
d="M785 -612q-185 0 -314.5 55t-204.5 167q-216 320 66 1015l140 -56q-78 -193 -111.5 -337.5t-36.5 -249.5t17 -175t49 -113q53 -78 151.5 -117.5t243.5 -39.5q105 0 196.5 16t167 43t135 61.5t100.5 71t62.5 72t21.5 64.5q1 20 -6.5 33.5t-28 24t-57 19t-94.5 17.5
q-35 5 -75 12.5t-80 20.5t-77 32.5t-66.5 49t-49 71.5t-24.5 99q-5 64 16.5 131t60 129.5t90 117.5t106.5 94q69 50 134.5 75t123.5 33t106.5 3t84 -14t56.5 -19t24 -11l-73 -131l37 66l-37 -68q-3 2 -32.5 13.5t-79.5 14t-115.5 -14t-140.5 -70.5q-47 -33 -87 -76
t-68.5 -89t-43.5 -90.5t-12 -81.5q3 -38 18.5 -62t45.5 -39.5t75 -26t107 -19.5q50 -9 105.5 -21t102 -38t77 -70.5t29.5 -117.5q-1 -56 -30.5 -113t-83 -109.5t-128.5 -98.5t-167.5 -80t-200 -53.5t-225.5 -19.5zM784 -903l-134 -133l-137 135l135 136zM1127 -903
l-135 -133l-136 135l136 136z" />
    <glyph glyph-name="uni064A.fina" unicode="&#x64a;" horiz-adv-x="1833" arabic-form="final" 
d="M1836 151v-151q-16 0 -44.5 0.5t-63.5 1t-73.5 1.5t-74 2t-64 2.5t-44.5 3.5q53 -48 86 -102.5t33 -117.5q0 -90 -56.5 -165t-158 -129t-242.5 -84t-310 -30q-314 0 -482 184q-60 66 -92 139.5t-45.5 142.5t-13.5 127.5t3 93.5q10 111 35 210t52 174.5t48.5 121
t23.5 48.5l133 -68q0 -1 -19 -42t-43 -109.5t-47.5 -158.5t-33.5 -190q-3 -27 -2.5 -73t10.5 -99.5t33.5 -110t68.5 -105.5q123 -134 371 -134q142 0 256.5 22.5t194 59.5t122.5 82.5t43 92.5q0 26 -19.5 54.5t-53.5 58t-79.5 58t-98.5 54.5t-110.5 49t-114.5 40l21 71
l19 73q1 0 43 -7.5t110.5 -18t156.5 -23.5t180 -23.5t181 -18t161 -7.5zM836 -921l-134 -133l-137 135l135 136zM1179 -921l-135 -133l-136 135l136 136z" />
    <glyph glyph-name="uni06CC" unicode="&#x6cc;" horiz-adv-x="1747" arabic-form="isolated" 
d="M735 -623q-185 0 -314.5 55t-204.5 167q-216 320 66 1015l140 -56q-78 -193 -111.5 -337.5t-36.5 -249.5t17 -175t49 -113q53 -78 151.5 -117.5t243.5 -39.5q105 0 196.5 16t167 43t135 61.5t100.5 71t62.5 72t21.5 64.5q1 20 -6.5 33.5t-28 24t-57 19t-94.5 17.5
q-35 5 -75 12.5t-80 20.5t-77 32.5t-66.5 49t-49 71.5t-24.5 99q-5 64 16.5 131t60 129.5t90 117.5t106.5 94q69 50 134.5 75t123.5 33t106.5 3t84 -14t56.5 -19t24 -11l-73 -131l37 66l-37 -68q-3 2 -32.5 13.5t-79.5 14t-115.5 -14t-140.5 -70.5q-47 -33 -87 -76
t-68.5 -89t-43.5 -90.5t-12 -81.5q3 -38 18.5 -62t45.5 -39.5t75 -26t107 -19.5q50 -9 105.5 -21t102 -38t77 -70.5t29.5 -117.5q-1 -56 -30.5 -113t-83 -109.5t-128.5 -98.5t-167.5 -80t-200 -53.5t-225.5 -19.5z" />
    <glyph glyph-name="uni06CC.init" unicode="&#x6cc;" horiz-adv-x="778" arabic-form="initial" 
d="M-76 74q0 32 22.5 54t53.5 22h259q70 -1 117.5 1t78 11t47.5 28t27 52q6 20 5 54.5t-8.5 78t-19 92.5t-26 99.5t-30.5 98.5t-31 88l141 53q7 -19 21.5 -60t31 -95t33 -117t27 -124t12 -116.5t-10.5 -94.5q-21 -69 -59 -108.5t-87 -60t-106 -25.5t-116 -5h-300h-6
q-31 0 -53.5 21t-22.5 53zM306 -455l-134 -133l-137 135l135 136zM649 -455l-135 -133l-136 135l136 136z" />
    <glyph glyph-name="uni06CC.medi" unicode="&#x6cc;" horiz-adv-x="869" arabic-form="medial" 
d="M-76 75q0 32 22.5 53.5t52.5 21.5q49 0 104.5 5t105 16.5t88 30.5t55.5 48q23 39 29.5 87.5t3 95.5t-12.5 86.5t-18 60.5l140 55q1 -3 10 -27.5t18 -64t14.5 -90.5t0.5 -105h1q-2 -65 41 -108q24 -25 52.5 -42.5t64.5 -28t81 -15t101 -4.5v-150q-128 0 -232 30t-176 105
l-9 10q-30 -51 -77 -80.5t-106.5 -43.5t-128.5 -17.5t-144 -3.5h-6q-30 0 -52.5 21.5t-22.5 53.5zM307 -449l-134 -133l-137 135l135 136zM650 -449l-135 -133l-136 135l136 136z" />
    <glyph glyph-name="uni06CC.fina" unicode="&#x6cc;" horiz-adv-x="1828" arabic-form="final" 
d="M1836 151v-151q-16 0 -44.5 0.5t-63.5 1t-73.5 1.5t-74 2t-64 2.5t-44.5 3.5q53 -48 86 -102.5t33 -117.5q0 -90 -56.5 -165t-158 -129t-242.5 -84t-310 -30q-314 0 -482 184q-60 66 -92 139.5t-45.5 142.5t-13.5 127.5t3 93.5q10 111 35 210t52 174.5t48.5 121
t23.5 48.5l133 -68q0 -1 -19 -42t-43 -109.5t-47.5 -158.5t-33.5 -190q-3 -27 -2.5 -73t10.5 -99.5t33.5 -110t68.5 -105.5q123 -134 371 -134q142 0 256.5 22.5t194 59.5t122.5 82.5t43 92.5q0 26 -19.5 54.5t-53.5 58t-79.5 58t-98.5 54.5t-110.5 49t-114.5 40l21 71
l19 73q1 0 43 -7.5t110.5 -18t156.5 -23.5t180 -23.5t181 -18t161 -7.5z" />
    <glyph glyph-name="uni06D3" unicode="&#x6d3;" horiz-adv-x="1921" arabic-form="isolated" 
d="M838 754l153 -34q-1 -6 -8 -32.5t-23 -62t-42.5 -73t-65.5 -64.5q-28 -20 -63.5 -33.5t-87.5 -31.5q-51 -17 -108.5 -38.5t-109.5 -50.5q-35 -19 -65 -43.5t-47 -45.5q15 -11 52 -24t86 -24q38 -8 85.5 -14t106.5 -10t131.5 -6t160.5 -2q105 0 207.5 10t194 24.5
t169.5 32t135 32.5t89.5 25t33.5 10l62 -148q-2 0 -22.5 -6.5t-56 -16.5t-85.5 -23t-111 -26q-56 -12 -126 -24.5t-149 -23t-165.5 -17t-175.5 -6.5q-94 0 -171.5 2t-141 6t-115.5 11t-95 16q-27 6 -67.5 19t-81.5 32.5t-75 46t-49 59.5v65q22 65 67 112t102.5 81.5
t121 59.5t123.5 46q10 3 31.5 10.5t45 16t44.5 17t30 15.5q15 10 27.5 28t22.5 37.5t17 37t9 28.5zM1033 969q-84 -33 -150 -37q-26 -5 -64 -18.5t-79.5 -31t-82.5 -36.5t-72 -35l-49 95q15 8 55.5 28t91.5 41q-11 7 -18.5 13.5t-13.5 11.5q-42 38 -57.5 88t-1.5 96
q51 165 218 165q37 0 70.5 -11t59 -24.5t42 -26t20.5 -15.5l-71 -82q-6 6 -18.5 14.5t-29 17t-35.5 14.5t-38 6q-20 0 -37 -3.5t-31.5 -13.5t-26.5 -27.5t-21 -45.5q-4 -14 3 -34t27 -40q7 -6 19 -14t30 -14.5t42 -10t55 -1.5q6 2 11 2t10 1q47 6 102 28z" />
    <glyph glyph-name="uni06D3.fina" unicode="&#x6d3;" horiz-adv-x="1421" arabic-form="final" 
d="M1432 150v-150q-1 0 -42.5 -2t-108.5 -5.5t-150.5 -9t-167 -12.5t-160 -15t-128.5 -17q-36 -6 -77.5 -20t-84.5 -33t-86 -41t-81 -44t-70 -42.5t-53 -36.5q52 -22 117 -38t135.5 -27.5t143 -19t140.5 -11.5q37 -2 74 -3t72 -1q86 0 162.5 5t134 10.5t91 10.5t34.5 5
l32 -151q-4 0 -41 -5.5t-97.5 -12t-141 -11.5t-172.5 -5q-40 0 -79 1.5t-80 3.5q-191 12 -316 33.5t-200.5 44t-110.5 43t-46 30.5l-5 136q2 3 22.5 24.5t57 53t87.5 69.5t114 73.5t136.5 64.5t155.5 44q55 10 134 18t165 15t171.5 12t155 8.5t114 5.5t49.5 2zM736 304
q-84 -33 -150 -37q-26 -5 -64 -18.5t-79.5 -31t-82.5 -36.5t-72 -35l-49 95q15 8 55.5 28t91.5 41q-11 7 -18.5 13.5t-13.5 11.5q-42 38 -57.5 88t-1.5 96q51 165 218 165q37 0 70.5 -11t59 -24.5t42 -26t20.5 -15.5l-71 -82q-6 6 -18.5 14.5t-29 17t-35.5 14.5t-38 6
q-20 0 -37 -3.5t-31.5 -13.5t-26.5 -27.5t-21 -45.5q-4 -14 3 -34t27 -40q7 -6 19 -14t30 -14.5t42 -10t55 -1.5q6 2 11 2t10 1q47 6 102 28z" />
    <glyph glyph-name="uni0626" unicode="&#x626;" horiz-adv-x="1777" arabic-form="isolated" 
d="M778 -624q-185 0 -314.5 55t-204.5 167q-216 320 66 1015l140 -56q-78 -193 -111.5 -337.5t-36.5 -249.5t17 -175t49 -113q53 -78 151.5 -117.5t243.5 -39.5q105 0 196.5 16t167 43t135 61.5t100.5 71t62.5 72t21.5 64.5q1 20 -6.5 33.5t-28 24t-57 19t-94.5 17.5
q-35 5 -75 12.5t-80 20.5t-77 32.5t-66.5 49t-49 71.5t-24.5 99q-5 64 16.5 131t60 129.5t90 117.5t106.5 94q69 50 134.5 75t123.5 33t106.5 3t84 -14t56.5 -19t24 -11l-73 -131l37 66l-37 -68q-3 2 -32.5 13.5t-79.5 14t-115.5 -14t-140.5 -70.5q-47 -33 -87 -76
t-68.5 -89t-43.5 -90.5t-12 -81.5q3 -38 18.5 -62t45.5 -39.5t75 -26t107 -19.5q50 -9 105.5 -21t102 -38t77 -70.5t29.5 -117.5q-1 -56 -30.5 -113t-83 -109.5t-128.5 -98.5t-167.5 -80t-200 -53.5t-225.5 -19.5zM1024 724q-84 -33 -150 -37q-26 -5 -64 -18.5t-79.5 -31
t-82.5 -36.5t-72 -35l-49 95q15 8 55.5 28t91.5 41q-11 7 -18.5 13.5t-13.5 11.5q-42 38 -57.5 88t-1.5 96q51 165 218 165q37 0 70.5 -11t59 -24.5t42 -26t20.5 -15.5l-71 -82q-6 6 -18.5 14.5t-29 17t-35.5 14.5t-38 6q-20 0 -37 -3.5t-31.5 -13.5t-26.5 -27.5t-21 -45.5
q-4 -14 3 -34t27 -40q7 -6 19 -14t30 -14.5t42 -10t55 -1.5q6 2 11 2t10 1q47 6 102 28z" />
    <glyph glyph-name="uni0626.init" unicode="&#x626;" horiz-adv-x="763" arabic-form="initial" 
d="M-76 74q0 32 22.5 54.5t53.5 22.5h199q70 -1 114 1t70 11t39.5 27.5t23.5 51.5q6 20 5 54.5t-8.5 78t-19 92.5t-26 99.5t-30.5 98.5t-31 88l141 53q7 -19 21.5 -60t31 -95t33 -117t27 -124t12 -116.5t-10.5 -94.5q-21 -69 -55.5 -108.5t-79 -60t-98 -25.5t-112.5 -5h-240
h-6q-31 0 -53.5 21t-22.5 53zM548 1149q-84 -33 -150 -37q-26 -5 -64 -18.5t-79.5 -31t-82.5 -36.5t-72 -35l-49 95q15 8 55.5 28t91.5 41q-11 7 -18.5 13.5t-13.5 11.5q-42 38 -57.5 88t-1.5 96q51 165 218 165q37 0 70.5 -11t59 -24.5t42 -26t20.5 -15.5l-71 -82
q-6 6 -18.5 14.5t-29 17t-35.5 14.5t-38 6q-20 0 -37 -3.5t-31.5 -13.5t-26.5 -27.5t-21 -45.5q-4 -14 3 -34t27 -40q7 -6 19 -14t30 -14.5t42 -10t55 -1.5q6 2 11 2t10 1q47 6 102 28z" />
    <glyph glyph-name="uni0626.medi" unicode="&#x626;" horiz-adv-x="823" arabic-form="medial" 
d="M-78 75q0 32 22.5 53.5t52.5 21.5q128 0 213.5 25t119.5 75q26 37 32.5 85.5t3 95.5t-14 87.5t-19.5 61.5l140 55q1 -3 10 -27.5t18 -64t14.5 -90.5t0.5 -105h1q-2 -65 41 -108q24 -25 55 -42.5t66.5 -28t75 -15t79.5 -4.5v-150q-54 0 -107.5 7t-103.5 23t-94 41.5
t-80 63.5l-9 10q-25 -39 -68 -67t-100 -45t-125 -25t-143 -8h-6q-30 0 -52.5 21.5t-22.5 53.5zM578 942q-84 -33 -150 -37q-26 -5 -64 -18.5t-79.5 -31t-82.5 -36.5t-72 -35l-49 95q15 8 55.5 28t91.5 41q-11 7 -18.5 13.5t-13.5 11.5q-42 38 -57.5 88t-1.5 96
q51 165 218 165q37 0 70.5 -11t59 -24.5t42 -26t20.5 -15.5l-71 -82q-6 6 -18.5 14.5t-29 17t-35.5 14.5t-38 6q-20 0 -37 -3.5t-31.5 -13.5t-26.5 -27.5t-21 -45.5q-4 -14 3 -34t27 -40q7 -6 19 -14t30 -14.5t42 -10t55 -1.5q6 2 11 2t10 1q47 6 102 28z" />
    <glyph glyph-name="uni0626.fina" unicode="&#x626;" horiz-adv-x="1833" arabic-form="final" 
d="M1836 151v-151q-16 0 -44.5 0.5t-63.5 1t-73.5 1.5t-74 2t-64 2.5t-44.5 3.5q53 -48 86 -102.5t33 -117.5q0 -90 -56.5 -165t-158 -129t-242.5 -84t-310 -30q-314 0 -482 184q-60 66 -92 139.5t-45.5 142.5t-13.5 127.5t3 93.5q10 111 35 210t52 174.5t48.5 121
t23.5 48.5l133 -68q0 -1 -19 -42t-43 -109.5t-47.5 -158.5t-33.5 -190q-3 -27 -2.5 -73t10.5 -99.5t33.5 -110t68.5 -105.5q123 -134 371 -134q142 0 256.5 22.5t194 59.5t122.5 82.5t43 92.5q0 26 -19.5 54.5t-53.5 58t-79.5 58t-98.5 54.5t-110.5 49t-114.5 40l21 71
l19 73q1 0 43 -7.5t110.5 -18t156.5 -23.5t180 -23.5t181 -18t161 -7.5zM1059 462q-84 -33 -150 -37q-26 -5 -64 -18.5t-79.5 -31t-82.5 -36.5t-72 -35l-49 95q15 8 55.5 28t91.5 41q-11 7 -18.5 13.5t-13.5 11.5q-42 38 -57.5 88t-1.5 96q51 165 218 165q37 0 70.5 -11
t59 -24.5t42 -26t20.5 -15.5l-71 -82q-6 6 -18.5 14.5t-29 17t-35.5 14.5t-38 6q-20 0 -37 -3.5t-31.5 -13.5t-26.5 -27.5t-21 -45.5q-4 -14 3 -34t27 -40q7 -6 19 -14t30 -14.5t42 -10t55 -1.5q6 2 11 2t10 1q47 6 102 28z" />
    <glyph glyph-name="uni06C2" unicode="&#x6c2;" horiz-adv-x="979" 
d="M503 1q-69 0 -136 20t-120.5 59t-86.5 96t-33 132q0 72 17.5 139t43.5 124.5t55.5 104.5t53.5 80q-11 3 -16.5 5t-6.5 2l40 146q4 -1 31 -9.5t68 -25t92 -42t103.5 -60t102 -79.5t88.5 -100.5t62.5 -123t23.5 -147.5q0 -55 -15.5 -112t-57.5 -103.5t-116.5 -76
t-192.5 -29.5zM442 694q-16 -19 -43.5 -57t-54.5 -89t-46.5 -112.5t-19.5 -127.5q0 -42 23 -72t56.5 -49t73 -27.5t72.5 -8.5q63 0 107 9t71.5 29.5t40 53t12.5 79.5q0 69 -27 126.5t-69.5 103.5t-94.5 81.5t-101 60.5zM630 1164q-84 -33 -150 -37q-26 -5 -64 -18.5
t-79.5 -31t-82.5 -36.5t-72 -35l-49 95q15 8 55.5 28t91.5 41q-11 7 -18.5 13.5t-13.5 11.5q-42 38 -57.5 88t-1.5 96q51 165 218 165q37 0 70.5 -11t59 -24.5t42 -26t20.5 -15.5l-71 -82q-6 6 -18.5 14.5t-29 17t-35.5 14.5t-38 6q-20 0 -37 -3.5t-31.5 -13.5t-26.5 -27.5
t-21 -45.5q-4 -14 3 -34t27 -40q7 -6 19 -14t30 -14.5t42 -10t55 -1.5q6 2 11 2t10 1q47 6 102 28z" />
    <glyph glyph-name="uni06C1" unicode="&#x6c1;" horiz-adv-x="983" arabic-form="isolated" 
d="M493 1q-69 0 -136 20t-120.5 59t-86.5 96t-33 132q0 72 17.5 139t43.5 124.5t55.5 104.5t53.5 80q-11 3 -16.5 5t-6.5 2l40 146q4 -1 31 -9.5t68 -25t92 -42t103.5 -60t102 -79.5t88.5 -100.5t62.5 -123t23.5 -147.5q0 -55 -15.5 -112t-57.5 -103.5t-116.5 -76
t-192.5 -29.5zM432 694q-16 -19 -43.5 -57t-54.5 -89t-46.5 -112.5t-19.5 -127.5q0 -42 23 -72t56.5 -49t73 -27.5t72.5 -8.5q63 0 107 9t71.5 29.5t40 53t12.5 79.5q0 69 -27 126.5t-69.5 103.5t-94.5 81.5t-101 60.5z" />
    <glyph glyph-name="uni06C3" unicode="&#x6c3;" horiz-adv-x="1020" 
d="M530 1q-69 0 -136 20t-120.5 59t-86.5 96t-33 132q0 72 17.5 139t43.5 124.5t55.5 104.5t53.5 80q-11 3 -16.5 5t-6.5 2l40 146q4 -1 31 -9.5t68 -25t92 -42t103.5 -60t102 -79.5t88.5 -100.5t62.5 -123t23.5 -147.5q0 -55 -15.5 -112t-57.5 -103.5t-116.5 -76
t-192.5 -29.5zM469 694q-16 -19 -43.5 -57t-54.5 -89t-46.5 -112.5t-19.5 -127.5q0 -42 23 -72t56.5 -49t73 -27.5t72.5 -8.5q63 0 107 9t71.5 29.5t40 53t12.5 79.5q0 69 -27 126.5t-69.5 103.5t-94.5 81.5t-101 60.5zM392 1224l-134 -133l-137 135l135 136zM735 1224
l-135 -133l-136 135l136 136z" />
    <glyph glyph-name="uni06BE.fina" unicode="&#x6be;" horiz-adv-x="1011" arabic-form="final" 
d="M48 15q-8 28 0 46.5t21 29.5q15 13 37 20l162 41q6 179 38 303t78.5 201.5t102 112t109.5 34.5q79 0 141 -65q24 -27 41.5 -63.5t28 -79.5t13.5 -90.5t-2 -96.5q-7 -68 -33.5 -137.5t-74.5 -126.5t-119.5 -96t-168.5 -45q13 -103 55.5 -186.5t95.5 -147.5q-11 72 0 138
t46 124q36 63 89.5 106t108 68.5t102 36.5t71.5 11h37v-151h-37q-12 0 -42.5 -8t-67 -25t-72.5 -45.5t-60 -68.5q-40 -69 -25.5 -164t81.5 -214l-4 -3q5 -3 9 -4t4 -3l-70 -133q-5 2 -38.5 22t-82.5 57.5t-106 93t-108 128.5t-88.5 165t-48.5 202l-138 -35q-9 -2 -21 -1.5
t-24.5 5.5t-23.5 15.5t-16 28.5zM605 653q-46 -27 -84 -89q-16 -27 -32.5 -64t-30.5 -87.5t-24.5 -114.5t-14.5 -145q51 4 89 22t65 43t44 54.5t27.5 58.5t15.5 53.5t7 40.5q8 57 -0.5 99.5t-22.5 71.5q-16 33 -39 57z" />
    <glyph glyph-name="uni06BE.init" unicode="&#x6be;" horiz-adv-x="1300" arabic-form="initial" 
d="M-81 75q0 32 22.5 54t52.5 22h6h92t87.5 1.5t87.5 4t91 7.5l-16 14q-37 39 -63 82.5t-42.5 86.5t-23.5 82t-6 71q2 39 13.5 78.5t31.5 77t47 71t60 60.5l-46 12l38 146q17 -5 63 -18.5t110.5 -36t141.5 -54.5t155 -73.5t150.5 -92.5t128.5 -112t90 -131.5t34 -150.5
q0 -68 -24.5 -114.5t-63 -76.5t-86.5 -46t-95.5 -23.5t-90 -9t-68.5 -1.5q-81 0 -147 13.5t-119 34.5q-63 -23 -134 -35.5t-150 -12.5q-10 -1 -44.5 -2.5t-92.5 -1.5h-109h-6q-30 0 -52.5 21t-22.5 53zM545 708q-33 0 -66 -20.5t-59.5 -52.5t-43.5 -70t-18 -72
q-1 -16 3.5 -40t15.5 -52.5t29.5 -59t45.5 -58.5q33 -37 81 -65q127 68 168 202q19 66 12 125.5t-37 101.5q-17 21 -38 36l-45 18q-11 3 -23 5t-25 2zM711 161q20 -2 41.5 -4t43.5 -2q70 0 117.5 6t78.5 16t48 23t24.5 26t9 26t1.5 24q0 40 -16 78t-44.5 73.5t-67.5 69
t-84 63.5q9 -87 -18 -182q-38 -130 -134 -217z" />
    <glyph glyph-name="uni06BE.medi" unicode="&#x6be;" horiz-adv-x="1085" arabic-form="medial" 
d="M-86 74q0 29 20.5 52t49.5 25h6h5h262q6 179 38 303t78.5 201t102.5 111.5t110 34.5q80 0 140 -65q24 -27 41.5 -63.5t28 -79.5t13.5 -90.5t-2 -96.5q-7 -68 -33.5 -137.5t-74.5 -126.5t-119.5 -96t-168.5 -45q14 -103 56 -186.5t95 -147.5q-11 72 0 138t46 124
q36 63 88 106t108 68.5t112 36.5t100 11h82v-151h-82q-26 0 -64 -8t-78 -25t-76.5 -45.5t-60.5 -68.5q-40 -69 -25.5 -164t81.5 -214l-4 -3q5 -3 9 -4t4 -3l-70 -133q-5 2 -38.5 22t-82.5 57.5t-106 93t-108 128.5t-88.5 165t-48.5 202h-276q-29 2 -49.5 23t-20.5 51z
M586 651q-20 -11 -48 -37.5t-55 -83t-48.5 -148t-26.5 -231.5q51 4 89 22t65.5 43t45 54.5t28 58.5t15 54t6.5 40q9 75 -10 135t-61 93z" />
    <glyph glyph-name="fathatan_01" unicode="&#xfe70;" arabic-form="isolated" 
d="M310 1448l31 -80l-419 -166l-32 80zM377 1261l31 -80l-419 -161l-30 80z" />
    <glyph glyph-name="dammatan_01" unicode="&#xfe72;" arabic-form="isolated" 
d="M1 981l-46 65q6 10 12 28.5t9.5 40t2.5 42t-8 33.5q-3 6 -8.5 10.5t-19.5 6.5q-11 0 -23 -4.5t-22 -10.5t-18 -12.5t-11 -9.5l-61 61q3 3 14.5 13t30 21.5t43 19.5t52.5 7q33 -2 58.5 -17.5t40.5 -43.5q18 -32 18.5 -71t-7.5 -75q50 15 106 37t97 51l-5 4q-13 5 -26.5 12
t-28.5 14q-41 20 -63 46.5t-30.5 53.5t-6 52.5t11.5 43.5q14 29 38.5 52.5t54 38t61.5 16.5t61 -12q59 -28 79 -97q7 -23 8.5 -48t-1 -49t-7 -46t-9.5 -39q8 -2 15 -4.5t13 -3.5l-25 -83q-8 2 -20.5 6t-26.5 8q-26 -25 -60 -46t-71 -38t-73.5 -30t-67.5 -22t-52.5 -14
t-28.5 -7zM274 1420q-21 0 -46 -17t-38 -41l-2 -8t0.5 -20t13.5 -26t37 -27q14 -8 28 -14t26 -13l24 -11q3 12 6.5 29t5 35.5t0.5 37t-6 34.5q-10 25 -32 38l-8 2t-9 1z" />
    <glyph glyph-name="kasratan_01" unicode="&#xfe74;" arabic-form="isolated" 
d="M306 -185l31 -80l-419 -166l-32 80zM373 -372l31 -80l-419 -161l-30 80z" />
    <glyph glyph-name="fatha_01" unicode="&#xfe76;" arabic-form="isolated" 
d="M17 1174l-31 80l415 163l31 -82z" />
    <glyph glyph-name="damma_01" unicode="&#xfe78;" arabic-form="isolated" 
d="M25 986l-24 84q21 6 55 17.5t72.5 27t76.5 35t68 42.5l-9 4q-13 7 -26.5 13t-27.5 13q-41 20 -63 46.5t-30.5 53.5t-6 53t10.5 44q14 28 38.5 52t54 38t62 16t61.5 -12q59 -28 78 -95q14 -48 8.5 -98.5t-16.5 -85.5q8 -2 15 -4t13 -4l-25 -83q-8 2 -21 6.5t-27 9.5
q-25 -26 -57.5 -48.5t-68 -41t-70.5 -33t-64 -25t-50 -17t-27 -8.5zM282 1440q-11 0 -23 -4.5t-23.5 -13t-20.5 -19t-15 -22.5q-1 0 -3.5 -8t0 -20t13.5 -26t37 -27q14 -8 28 -14t27 -13l24 -11q3 13 6 30t4.5 35t0.5 36.5t-6 34.5q-5 14 -12.5 23.5t-19.5 14.5q-5 4 -17 4z
" />
    <glyph glyph-name="kasra_01" unicode="&#xfe7a;" arabic-form="isolated" 
d="M23 -500l-31 80l415 163l31 -82z" />
    <glyph glyph-name="shadda_01" unicode="&#xfe7c;" arabic-form="isolated" 
d="M162 1089h-6q-30 1 -52 7.5t-38 16t-27 20.5t-17 22q-18 30 -20 64.5t4 65t15 54t14 31.5l77 -36q-6 -13 -12 -31t-9.5 -37t-3 -36.5t7.5 -29.5q6 -10 20.5 -16.5t31.5 -8t34 2.5t26 16q13 15 20 37t9.5 46t2 46t-0.5 36q21 3 38 5q14 2 26.5 3t12.5 -1q7 -63 17.5 -99
t22.5 -53.5t24 -21.5t21 -4q41 3 54 31.5t8 66t-23 76t-39 63.5l71 49q6 -9 23 -36t32 -62.5t23 -74.5t-3 -73t-28 -57.5t-37.5 -38.5t-42.5 -21.5t-42 -6.5q-23 0 -53.5 10t-55.5 42q-23 -32 -54 -49.5t-71 -17.5z" />
    <glyph glyph-name="sukun_01" unicode="&#xfe7e;" arabic-form="isolated" 
d="M371 1355q17 0 32.5 9.5t27 24.5t18.5 33t7 35t-7 35t-18.5 32.5t-27 24t-32.5 9.5q-18 0 -34 -9.5t-27.5 -24t-18.5 -32.5t-7 -35t7 -35t18.5 -33t27.5 -24.5t34 -9.5zM371 1654q36 0 70 -17t60 -48q51 -59 51 -132q0 -35 -13 -69.5t-38 -62.5q-26 -32 -60 -49t-70 -17
q-37 0 -71 17t-61 49q-24 28 -37.5 62.5t-13.5 69.5t13.5 69t37.5 63q27 31 61 48t71 17z" />
    <glyph glyph-name="uni0651064C" unicode="&#xfc5e;" arabic-form="isolated" 
d="M162 1089h-6q-30 1 -52 7.5t-38 16t-27 20.5t-17 22q-18 30 -20 64.5t4 65t15 54t14 31.5l77 -36q-6 -13 -12 -31t-9.5 -37t-3 -36.5t7.5 -29.5q6 -10 20.5 -16.5t31.5 -8t34 2.5t26 16q13 15 20 37t9.5 46t2 46t-0.5 36q21 3 38 5q14 2 26.5 3t12.5 -1q7 -63 17.5 -99
t22.5 -53.5t24 -21.5t21 -4q41 3 54 31.5t8 66t-23 76t-39 63.5l71 49q6 -9 23 -36t32 -62.5t23 -74.5t-3 -73t-28 -57.5t-37.5 -38.5t-42.5 -21.5t-42 -6.5q-23 0 -53.5 10t-55.5 42q-23 -32 -54 -49.5t-71 -17.5zM52 1435l-46 65q6 10 12 28.5t9.5 40t2.5 42t-8 33.5
q-3 6 -8.5 10.5t-19.5 6.5q-11 0 -23 -4.5t-22 -10.5t-18 -12.5t-11 -9.5l-61 61q3 3 14.5 13t30 21.5t43 19.5t52.5 7q33 -2 58.5 -17.5t40.5 -43.5q18 -32 18.5 -71t-7.5 -75q50 15 106 37t97 51l-5 4q-13 5 -26.5 12t-28.5 14q-41 20 -63 46.5t-30.5 53.5t-6 52.5
t11.5 43.5q14 29 38.5 52.5t54 38t61.5 16.5t61 -12q59 -28 79 -97q7 -23 8.5 -48t-1 -49t-7 -46t-9.5 -39q8 -2 15 -4.5t13 -3.5l-25 -83q-8 2 -20.5 6t-26.5 8q-26 -25 -60 -46t-71 -38t-73.5 -30t-67.5 -22t-52.5 -14t-28.5 -7zM325 1874q-21 0 -46 -17t-38 -41l-2 -8
t0.5 -20t13.5 -26t37 -27q14 -8 28 -14t26 -13l24 -11q3 12 6.5 29t5 35.5t0.5 37t-6 34.5q-10 25 -32 38l-8 2t-9 1z" />
    <glyph glyph-name="uni0651064D" unicode="&#xfc5f;" arabic-form="isolated" 
d="M93 1089h-6q-30 1 -52 7.5t-38 16t-27 20.5t-17 22q-18 30 -20 64.5t4 65t15 54t14 31.5l77 -36q-6 -13 -12 -31t-9.5 -37t-3 -36.5t7.5 -29.5q6 -10 20.5 -16.5t31.5 -8t34 2.5t26 16q13 15 20 37t9.5 46t2 46t-0.5 36q21 3 38 5q14 2 26.5 3t12.5 -1q7 -63 17.5 -99
t22.5 -53.5t24 -21.5t21 -4q41 3 54 31.5t8 66t-23 76t-39 63.5l71 49q6 -9 23 -36t32 -62.5t23 -74.5t-3 -73t-28 -57.5t-37.5 -38.5t-42.5 -21.5t-42 -6.5q-23 0 -53.5 10t-55.5 42q-23 -32 -54 -49.5t-71 -17.5zM391 1047l31 -80l-419 -166l-32 80zM458 860l31 -80
l-419 -161l-30 80z" />
    <glyph glyph-name="uni0651064E" unicode="&#xfc60;" arabic-form="isolated" 
d="M162 1089h-6q-30 1 -52 7.5t-38 16t-27 20.5t-17 22q-18 30 -20 64.5t4 65t15 54t14 31.5l77 -36q-6 -13 -12 -31t-9.5 -37t-3 -36.5t7.5 -29.5q6 -10 20.5 -16.5t31.5 -8t34 2.5t26 16q13 15 20 37t9.5 46t2 46t-0.5 36q21 3 38 5q14 2 26.5 3t12.5 -1q7 -63 17.5 -99
t22.5 -53.5t24 -21.5t21 -4q41 3 54 31.5t8 66t-23 76t-39 63.5l71 49q6 -9 23 -36t32 -62.5t23 -74.5t-3 -73t-28 -57.5t-37.5 -38.5t-42.5 -21.5t-42 -6.5q-23 0 -53.5 10t-55.5 42q-23 -32 -54 -49.5t-71 -17.5zM52 1487l-31 80l415 163l31 -82z" />
    <glyph glyph-name="uni0651064F" unicode="&#xfc61;" arabic-form="isolated" 
d="M162 1089h-6q-30 1 -52 7.5t-38 16t-27 20.5t-17 22q-18 30 -20 64.5t4 65t15 54t14 31.5l77 -36q-6 -13 -12 -31t-9.5 -37t-3 -36.5t7.5 -29.5q6 -10 20.5 -16.5t31.5 -8t34 2.5t26 16q13 15 20 37t9.5 46t2 46t-0.5 36q21 3 38 5q14 2 26.5 3t12.5 -1q7 -63 17.5 -99
t22.5 -53.5t24 -21.5t21 -4q41 3 54 31.5t8 66t-23 76t-39 63.5l71 49q6 -9 23 -36t32 -62.5t23 -74.5t-3 -73t-28 -57.5t-37.5 -38.5t-42.5 -21.5t-42 -6.5q-23 0 -53.5 10t-55.5 42q-23 -32 -54 -49.5t-71 -17.5zM61 1411l-24 84q21 6 55 17.5t72.5 27t76.5 35t68 42.5
l-9 4q-13 7 -26.5 13t-27.5 13q-41 20 -63 46.5t-30.5 53.5t-6 53t10.5 44q14 28 38.5 52t54 38t62 16t61.5 -12q59 -28 78 -95q14 -48 8.5 -98.5t-16.5 -85.5q8 -2 15 -4t13 -4l-25 -83q-8 2 -21 6.5t-27 9.5q-25 -26 -57.5 -48.5t-68 -41t-70.5 -33t-64 -25t-50 -17
t-27 -8.5zM318 1865q-11 0 -23 -4.5t-23.5 -13t-20.5 -19t-15 -22.5q-1 0 -3.5 -8t0 -20t13.5 -26t37 -27q14 -8 28 -14t27 -13l24 -11q3 13 6 30t4.5 35t0.5 36.5t-6 34.5q-5 14 -12.5 23.5t-19.5 14.5q-5 4 -17 4z" />
    <glyph glyph-name="uni06510650" unicode="&#xfc62;" arabic-form="isolated" 
d="M162 1089h-6q-30 1 -52 7.5t-38 16t-27 20.5t-17 22q-18 30 -20 64.5t4 65t15 54t14 31.5l77 -36q-6 -13 -12 -31t-9.5 -37t-3 -36.5t7.5 -29.5q6 -10 20.5 -16.5t31.5 -8t34 2.5t26 16q13 15 20 37t9.5 46t2 46t-0.5 36q21 3 38 5q14 2 26.5 3t12.5 -1q7 -63 17.5 -99
t22.5 -53.5t24 -21.5t21 -4q41 3 54 31.5t8 66t-23 76t-39 63.5l71 49q6 -9 23 -36t32 -62.5t23 -74.5t-3 -73t-28 -57.5t-37.5 -38.5t-42.5 -21.5t-42 -6.5q-23 0 -53.5 10t-55.5 42q-23 -32 -54 -49.5t-71 -17.5zM91 819l-31 80l415 163l31 -82z" />
    <glyph glyph-name="uniFC63" unicode="&#xfc63;" arabic-form="isolated" 
d="M162 1089h-6q-30 1 -52 7.5t-38 16t-27 20.5t-17 22q-18 30 -20 64.5t4 65t15 54t14 31.5l77 -36q-6 -13 -12 -31t-9.5 -37t-3 -36.5t7.5 -29.5q6 -10 20.5 -16.5t31.5 -8t34 2.5t26 16q13 15 20 37t9.5 46t2 46t-0.5 36q21 3 38 5q14 2 26.5 3t12.5 -1q7 -63 17.5 -99
t22.5 -53.5t24 -21.5t21 -4q41 3 54 31.5t8 66t-23 76t-39 63.5l71 49q6 -9 23 -36t32 -62.5t23 -74.5t-3 -73t-28 -57.5t-37.5 -38.5t-42.5 -21.5t-42 -6.5q-23 0 -53.5 10t-55.5 42q-23 -32 -54 -49.5t-71 -17.5zM225 1515q4 18 2.5 53t-6.5 72.5t-11.5 71t-10.5 48.5
l74 47q2 -6 10.5 -40t16 -80t10 -96.5t-7.5 -88.5z" />
    <glyph glyph-name="uni0672.fina" unicode="&#x672;" horiz-adv-x="703" 
d="M703 151h12v-151h-12h-21q-20 0 -57 3t-80.5 12t-87 26t-76.5 46q-59 54 -89 132.5t-30 182.5q0 67 -1.5 145t-4 160.5t-6 165.5t-6.5 159.5t-6.5 143.5t-6 116.5t-4 78.5t-1.5 30l150 16q0 -1 3 -52t7 -133.5t9 -189t9 -218.5t6.5 -222t2.5 -200q0 -69 16.5 -120.5
t51.5 -80.5q23 -19 60.5 -29t73.5 -15q42 -5 88 -6zM523 1767q-15 16 -33 28q-16 11 -38.5 20t-51.5 9q-24 0 -42 -8t-30 -21.5t-18.5 -31.5t-6.5 -37q0 -26 11.5 -47.5t31 -36.5t45 -23t53.5 -6q24 2 47 5t40 6q20 4 38 7l11 -78q-24 -6 -53.5 -15.5t-68.5 -16t-89 -7
t-114 11.5q-8 1 -19.5 4.5t-23.5 6.5t-23.5 5.5t-19.5 1.5q-25 -2 -41.5 -8t-28 -14t-21 -17.5t-20.5 -19.5l-44 59q11 10 25 23.5t31 26t38.5 22t48.5 12.5q11 2 30.5 -2.5t39.5 -10.5q23 -7 49 -16q-29 28 -41.5 58.5t-12.5 68.5q0 36 13.5 68.5t37.5 57t56.5 39
t70.5 14.5q39 0 70.5 -12t54.5 -26q26 -17 48 -38z" />
    <glyph glyph-name="uni0673.fina" unicode="&#x673;" horiz-adv-x="603" 
d="M603 151h12v-151h-12h-21q-20 0 -48.5 2.5t-62 11.5t-68.5 26t-68 46q-119 110 -119 315q0 67 -1.5 145t-4 160.5t-6 165.5t-6.5 159.5t-6.5 143.5t-6 116.5t-4 78.5t-1.5 30l150 16q0 -1 3 -52t7 -133.5t9 -189t9 -218.5t6.5 -222t2.5 -200q0 -69 17 -120t51 -81
q24 -23 53 -33t55 -14q30 -4 60 -2zM487 -202q-15 16 -33 28q-16 11 -38.5 20t-51.5 9q-24 0 -42 -8t-30 -21.5t-18.5 -31.5t-6.5 -37q0 -26 11.5 -47.5t31 -36.5t45 -23t53.5 -6q24 2 47 5t40 6q20 4 38 7l11 -78q-24 -6 -53.5 -15.5t-68.5 -16t-89 -7t-114 11.5
q-8 1 -19.5 4.5t-23.5 6.5t-23.5 5.5t-19.5 1.5q-25 -2 -41.5 -8t-28 -14t-21 -17.5t-20.5 -19.5l-44 59q11 10 25 23.5t31 26t38.5 22t48.5 12.5q11 2 30.5 -2.5t39.5 -10.5q23 -7 49 -16q-29 28 -41.5 58.5t-12.5 68.5q0 36 13.5 68.5t37.5 57t56.5 39t70.5 14.5
q39 0 70.5 -12t54.5 -26q26 -17 48 -38z" />
    <glyph glyph-name="uni0675.fina" unicode="&#x675;" horiz-adv-x="683" 
d="M683 151h12v-151h-12h-21q-20 0 -57 3t-80.5 12t-87 26t-76.5 46q-59 54 -89 132.5t-30 182.5q0 67 -1.5 145t-4 160.5t-6 165.5t-6.5 159.5t-6.5 143.5t-6 116.5t-4 78.5t-1.5 30l150 16q0 -1 3 -52t7 -133.5t9 -189t9 -218.5t6.5 -222t2.5 -200q0 -69 16.5 -120.5
t51.5 -80.5q23 -19 60.5 -29t73.5 -15q42 -5 88 -6zM84 1512l-45 88q14 8 51.5 26.5t85.5 39.5q-10 5 -17 11.5t-12 11.5q-39 35 -54.5 81.5t-1.5 90.5q48 154 204 154q34 0 65 -10.5t55 -23.5t39.5 -24.5t18.5 -14.5l-66 -76q-6 5 -17.5 13t-27 16t-33 13.5t-34.5 5.5
q-18 0 -34.5 -3.5t-30 -12.5t-25 -25.5t-19.5 -42.5q-3 -11 3 -31t25 -38q7 -6 18.5 -13t28 -13t39 -9.5t51.5 -0.5q5 0 10 0.5t10 0.5q21 4 44 10t51 17l36 -94q-39 -16 -74 -24t-66 -11q-24 -4 -59.5 -16.5t-74.5 -29t-77 -34t-67 -32.5z" />
    <glyph glyph-name="uni0676.fina" unicode="&#x676;" horiz-adv-x="994" 
d="M897 151h107v-151h-106q-7 -89 -35 -164t-69 -137.5t-91 -112.5t-102 -89t-101.5 -67.5t-89.5 -47t-66 -28t-30 -11.5l-46 143q5 2 39.5 15.5t84.5 40t108 67.5t109.5 97.5t89.5 129.5t48 164h-84h-143q-100 0 -169 30t-112 77t-62 106t-19 116q0 51 12 104.5t34.5 103
t54 93t70 76t83.5 51.5t94 19q76 0 133 -30.5t99 -80.5t70.5 -115t47 -134.5t28 -138t13.5 -126.5zM663 151h83q-3 40 -9.5 90.5t-18.5 103t-30 103t-43.5 89.5t-59.5 63t-79 24q-35 0 -70.5 -26.5t-63.5 -68.5t-45.5 -94.5t-17.5 -105.5q0 -25 7 -56t29.5 -58t64 -45.5
t110.5 -18.5h143zM303 910l-45 88q14 8 51.5 26.5t85.5 39.5q-10 5 -17 11.5t-12 11.5q-39 35 -54.5 81.5t-1.5 90.5q48 154 204 154q34 0 65 -10.5t55 -23.5t39.5 -24.5t18.5 -14.5l-66 -76q-6 5 -17.5 13t-27 16t-33 13.5t-34.5 5.5q-18 0 -34.5 -3.5t-30 -12.5t-25 -25.5
t-19.5 -42.5q-3 -11 3 -31t25 -38q7 -6 18.5 -13t28 -13t39 -9.5t51.5 -0.5q5 0 10 0.5t10 0.5q21 4 44 10t51 17l36 -94q-39 -16 -74 -24t-66 -11q-24 -4 -59.5 -16.5t-74.5 -29t-77 -34t-67 -32.5z" />
    <glyph glyph-name="uni0677.fina" unicode="&#x677;" horiz-adv-x="954" 
d="M860 151h107v-151h-106q-7 -89 -35 -164t-69 -137.5t-91 -112.5t-102 -89t-101.5 -67.5t-89.5 -47t-66 -28t-30 -11.5l-46 143q5 2 39.5 15.5t84.5 40t108 67.5t109.5 97.5t89.5 129.5t48 164h-84h-143q-100 0 -169 30t-112 77t-62 106t-19 116q0 51 12 104.5t34.5 103
t54 93t70 76t83.5 51.5t94 19q76 0 133 -30.5t99 -80.5t70.5 -115t47 -134.5t28 -138t13.5 -126.5zM626 151h83q-3 40 -9.5 90.5t-18.5 103t-30 103t-43.5 89.5t-59.5 63t-79 24q-35 0 -70.5 -26.5t-63.5 -68.5t-45.5 -94.5t-17.5 -105.5q0 -25 7 -56t29.5 -58t64 -45.5
t110.5 -18.5h143zM293 1286l-24 84q21 6 55 17.5t72.5 27t76.5 35t68 42.5l-9 4q-13 7 -26.5 13t-27.5 13q-41 20 -63 46.5t-30.5 53.5t-6 53t10.5 44q14 28 38.5 52t54 38t62 16t61.5 -12q59 -28 78 -95q14 -48 8.5 -98.5t-16.5 -85.5q8 -2 15 -4t13 -4l-25 -83
q-8 2 -21 6.5t-27 9.5q-25 -26 -57.5 -48.5t-68 -41t-70.5 -33t-64 -25t-50 -17t-27 -8.5zM550 1740q-11 0 -23 -4.5t-23.5 -13t-20.5 -19t-15 -22.5q-1 0 -3.5 -8t0 -20t13.5 -26t37 -27q14 -8 28 -14t27 -13l24 -11q3 13 6 30t4.5 35t0.5 36.5t-6 34.5q-5 14 -12.5 23.5
t-19.5 14.5q-5 4 -17 4zM312 812l-45 88q14 8 51.5 26.5t85.5 39.5q-10 5 -17 11.5t-12 11.5q-39 35 -54.5 81.5t-1.5 90.5q48 154 204 154q34 0 65 -10.5t55 -23.5t39.5 -24.5t18.5 -14.5l-66 -76q-6 5 -17.5 13t-27 16t-33 13.5t-34.5 5.5q-18 0 -34.5 -3.5t-30 -12.5
t-25 -25.5t-19.5 -42.5q-3 -11 3 -31t25 -38q7 -6 18.5 -13t28 -13t39 -9.5t51.5 -0.5q5 0 10 0.5t10 0.5q21 4 44 10t51 17l36 -94q-39 -16 -74 -24t-66 -11q-24 -4 -59.5 -16.5t-74.5 -29t-77 -34t-67 -32.5z" />
    <glyph glyph-name="uni0678.fina" unicode="&#x678;" horiz-adv-x="1828" 
d="M1836 151v-151q-16 0 -44.5 0.5t-63.5 1t-73.5 1.5t-74 2t-64 2.5t-44.5 3.5q53 -48 86 -102.5t33 -117.5q0 -90 -56.5 -165t-158 -129t-242.5 -84t-310 -30q-314 0 -482 184q-60 66 -92 139.5t-45.5 142.5t-13.5 127.5t3 93.5q10 111 35 210t52 174.5t48.5 121
t23.5 48.5l133 -68q0 -1 -19 -42t-43 -109.5t-47.5 -158.5t-33.5 -190q-3 -27 -2.5 -73t10.5 -99.5t33.5 -110t68.5 -105.5q123 -134 371 -134q142 0 256.5 22.5t194 59.5t122.5 82.5t43 92.5q0 26 -19.5 54.5t-53.5 58t-79.5 58t-98.5 54.5t-110.5 49t-114.5 40l21 71
l19 73q1 0 43 -7.5t110.5 -18t156.5 -23.5t180 -23.5t181 -18t161 -7.5zM528 151l-45 88q14 8 51.5 26.5t85.5 39.5q-10 5 -17 11.5t-12 11.5q-39 35 -54.5 81.5t-1.5 90.5q48 154 204 154q34 0 65 -10.5t55 -23.5t39.5 -24.5t18.5 -14.5l-66 -76q-6 5 -17.5 13t-27 16
t-33 13.5t-34.5 5.5q-18 0 -34.5 -3.5t-30 -12.5t-25 -25.5t-19.5 -42.5q-3 -11 3 -31t25 -38q7 -6 18.5 -13t28 -13t39 -9.5t51.5 -0.5q5 0 10 0.5t10 0.5q21 4 44 10t51 17l36 -94q-39 -16 -74 -24t-66 -11q-24 -4 -59.5 -16.5t-74.5 -29t-77 -34t-67 -32.5z" />
    <glyph glyph-name="uni067A.init" unicode="&#x67a;" horiz-adv-x="763" arabic-form="initial" 
d="M-76 74q0 32 22.5 54t53.5 22h259q70 -1 117.5 1t78 11t47.5 28t27 52q6 20 5 54.5t-8.5 78t-19 92.5t-26 99.5t-30.5 98.5t-31 88l141 53q7 -19 21.5 -60t31 -95t33 -117t27 -124t12 -116.5t-10.5 -94.5q-21 -69 -59 -108.5t-87 -60t-106 -25.5t-116 -5h-300h-6
q-31 0 -53.5 21t-22.5 53zM196 1501l143 142l142 -143l-142 -143zM199 1145l143 142l142 -143l-142 -143z" />
    <glyph glyph-name="uni067A.medi" unicode="&#x67a;" horiz-adv-x="879" arabic-form="medial" 
d="M-67 75q0 32 22.5 53.5t52.5 21.5q49 0 104.5 5t105 16.5t88 30.5t55.5 48q23 39 29.5 87.5t3 95.5t-12.5 86.5t-18 60.5l140 55q1 -3 10 -27.5t18 -64t14.5 -90.5t0.5 -105h1q-2 -65 41 -108q24 -25 52.5 -42.5t64.5 -28t81 -15t101 -4.5v-150q-128 0 -232 30t-176 105
l-9 10q-30 -51 -77 -80.5t-106.5 -43.5t-128.5 -17.5t-144 -3.5h-6q-30 0 -52.5 21.5t-22.5 53.5zM229 1343l143 142l142 -143l-142 -143zM232 987l143 142l142 -143l-142 -143z" />
    <glyph glyph-name="uni067A.fina" unicode="&#x67a;" horiz-adv-x="2034" arabic-form="final" 
d="M1805 228q13 -21 44 -35.5t67 -24t71 -13.5t56 -4v-150q-6 0 -29 1t-56 5t-72 13t-78 25.5t-73 41t-57 60.5q-21 32 -30 67q-58 -43 -134.5 -81.5t-175.5 -68t-222 -46.5t-273 -17q-257 0 -425.5 62.5t-248.5 188.5q-32 50 -47 103.5t-17.5 106t4.5 102.5t19 93.5
t26.5 79.5t25.5 60l136 -65q-7 -14 -17 -39.5t-20 -58t-17 -70.5t-7 -77.5t9 -79t32 -74.5q57 -90 195.5 -136t351.5 -46q153 0 273 18.5t212 49.5t158.5 70t113 80.5t75 82t45 73t22 53.5t6.5 25l148 -25q0 -3 -3.5 -18.5t-12 -40.5t-23.5 -57t-39 -69q-49 -108 -13 -165z
M820 1001l143 142l142 -143l-142 -143zM823 645l143 142l142 -143l-142 -143z" />
    <glyph glyph-name="uni067B.init" unicode="&#x67b;" horiz-adv-x="703" arabic-form="initial" 
d="M-76 74q0 32 22.5 54.5t53.5 22.5h199q70 -1 114 1t70 11t39.5 27.5t23.5 51.5q6 20 5 54.5t-8.5 78t-19 92.5t-26 99.5t-30.5 98.5t-31 88l141 53q7 -19 21.5 -60t31 -95t33 -117t27 -124t12 -116.5t-10.5 -94.5q-21 -69 -55.5 -108.5t-79 -60t-98 -25.5t-112.5 -5h-240
h-6q-31 0 -53.5 21t-22.5 53zM170 -358l143 142l142 -143l-142 -143zM173 -714l143 142l142 -143l-142 -143z" />
    <glyph glyph-name="uni067B.medi" unicode="&#x67b;" horiz-adv-x="823" arabic-form="medial" 
d="M-78 75q0 32 22.5 53.5t52.5 21.5q128 0 213.5 25t119.5 75q26 37 32.5 85.5t3 95.5t-14 87.5t-19.5 61.5l140 55q1 -3 10 -27.5t18 -64t14.5 -90.5t0.5 -105h1q-2 -65 41 -108q24 -25 55 -42.5t66.5 -28t75 -15t79.5 -4.5v-150q-54 0 -107.5 7t-103.5 23t-94 41.5
t-80 63.5l-9 10q-25 -39 -68 -67t-100 -45t-125 -25t-143 -8h-6q-30 0 -52.5 21.5t-22.5 53.5zM242 -303l143 142l142 -143l-142 -143zM245 -659l143 142l142 -143l-142 -143z" />
    <glyph glyph-name="uni067B.fina" unicode="&#x67b;" horiz-adv-x="2054" arabic-form="final" 
d="M1821 228q13 -21 44 -35.5t67 -24t71 -13.5t56 -4v-150q-6 0 -29 1t-56 5t-72 13t-78 25.5t-73 41t-57 60.5q-21 32 -30 67q-58 -43 -134.5 -81.5t-175.5 -68t-222 -46.5t-273 -17q-257 0 -425.5 62.5t-248.5 188.5q-32 50 -47 103.5t-17.5 106t4.5 102.5t19 93.5
t26.5 79.5t25.5 60l136 -65q-7 -14 -17 -39.5t-20 -58t-17 -70.5t-7 -77.5t9 -79t32 -74.5q57 -90 195.5 -136t351.5 -46q153 0 273 18.5t212 49.5t158.5 70t113 80.5t75 82t45 73t22 53.5t6.5 25l148 -25q0 -3 -3.5 -18.5t-12 -40.5t-23.5 -57t-39 -69q-49 -108 -13 -165z
M770 -299l143 142l142 -143l-142 -143zM773 -655l143 142l142 -143l-142 -143z" />
    <glyph glyph-name="uni067C.init" unicode="&#x67c;" horiz-adv-x="723" 
d="M-76 74q0 32 22.5 54.5t53.5 22.5h199q70 -1 114 1t70 11t39.5 27.5t23.5 51.5q6 20 5 54.5t-8.5 78t-19 92.5t-26 99.5t-30.5 98.5t-31 88l141 53q7 -19 21.5 -60t31 -95t33 -117t27 -124t12 -116.5t-10.5 -94.5q-21 -69 -55.5 -108.5t-79 -60t-98 -25.5t-112.5 -5h-240
h-6q-31 0 -53.5 21t-22.5 53zM306 1707q17 0 32.5 9.5t27 24.5t18.5 33t7 35t-7 35t-18.5 32.5t-27 24t-32.5 9.5q-18 0 -34 -9.5t-27.5 -24t-18.5 -32.5t-7 -35t7 -35t18.5 -33t27.5 -24.5t34 -9.5zM306 2006q36 0 70 -17t60 -48q51 -59 51 -132q0 -35 -13 -69.5t-38 -62.5
q-26 -32 -60 -49t-70 -17q-37 0 -71 17t-61 49q-24 28 -37.5 62.5t-13.5 69.5t13.5 69t37.5 63q27 31 61 48t71 17zM283 1147l-134 -133l-137 135l135 136zM626 1147l-135 -133l-136 135l136 136z" />
    <glyph glyph-name="uni067C.medi" unicode="&#x67c;" horiz-adv-x="869" 
d="M-70 75q0 32 22.5 53.5t52.5 21.5q49 0 104.5 5t105 16.5t88 30.5t55.5 48q23 39 29.5 87.5t3 95.5t-12.5 86.5t-18 60.5l140 55q1 -3 10 -27.5t18 -64t14.5 -90.5t0.5 -105h1q-2 -65 41 -108q24 -25 52.5 -42.5t64.5 -28t81 -15t101 -4.5v-150q-128 0 -232 30t-176 105
l-9 10q-30 -51 -77 -80.5t-106.5 -43.5t-128.5 -17.5t-144 -3.5h-6q-30 0 -52.5 21.5t-22.5 53.5zM344 981l-134 -133l-137 135l135 136zM687 981l-135 -133l-136 135l136 136zM339 1500q17 0 32.5 9.5t27 24.5t18.5 33t7 35t-7 35t-18.5 32.5t-27 24t-32.5 9.5
q-18 0 -34 -9.5t-27.5 -24t-18.5 -32.5t-7 -35t7 -35t18.5 -33t27.5 -24.5t34 -9.5zM339 1799q36 0 70 -17t60 -48q51 -59 51 -132q0 -35 -13 -69.5t-38 -62.5q-26 -32 -60 -49t-70 -17q-37 0 -71 17t-61 49q-24 28 -37.5 62.5t-13.5 69.5t13.5 69t37.5 63q27 31 61 48
t71 17z" />
    <glyph glyph-name="uni067C.fina" unicode="&#x67c;" horiz-adv-x="2034" 
d="M1806 228q13 -21 44 -35.5t67 -24t71 -13.5t56 -4v-150q-6 0 -29 1t-56 5t-72 13t-78 25.5t-73 41t-57 60.5q-21 32 -30 67q-58 -43 -134.5 -81.5t-175.5 -68t-222 -46.5t-273 -17q-257 0 -425.5 62.5t-248.5 188.5q-32 50 -47 103.5t-17.5 106t4.5 102.5t19 93.5
t26.5 79.5t25.5 60l136 -65q-7 -14 -17 -39.5t-20 -58t-17 -70.5t-7 -77.5t9 -79t32 -74.5q57 -90 195.5 -136t351.5 -46q153 0 273 18.5t212 49.5t158.5 70t113 80.5t75 82t45 73t22 53.5t6.5 25l148 -25q0 -3 -3.5 -18.5t-12 -40.5t-23.5 -57t-39 -69q-49 -108 -13 -165z
M960 759l-134 -133l-137 135l135 136zM1303 759l-135 -133l-136 135l136 136zM942 1337q17 0 32.5 9.5t27 24.5t18.5 33t7 35t-7 35t-18.5 32.5t-27 24t-32.5 9.5q-18 0 -34 -9.5t-27.5 -24t-18.5 -32.5t-7 -35t7 -35t18.5 -33t27.5 -24.5t34 -9.5zM942 1636q36 0 70 -17
t60 -48q51 -59 51 -132q0 -35 -13 -69.5t-38 -62.5q-26 -32 -60 -49t-70 -17q-37 0 -71 17t-61 49q-24 28 -37.5 62.5t-13.5 69.5t13.5 69t37.5 63q27 31 61 48t71 17z" />
    <glyph glyph-name="uni067D.init" unicode="&#x67d;" horiz-adv-x="763" 
d="M-76 74q0 32 22.5 54t53.5 22h259q70 -1 117.5 1t78 11t47.5 28t27 52q6 20 5 54.5t-8.5 78t-19 92.5t-26 99.5t-30.5 98.5t-31 88l141 53q7 -19 21.5 -60t31 -95t33 -117t27 -124t12 -116.5t-10.5 -94.5q-21 -69 -59 -108.5t-87 -60t-106 -25.5t-116 -5h-300h-6
q-31 0 -53.5 21t-22.5 53zM168 1541l136 -136l-134 -134l-138 135zM353 1406l136 135l136 -136l-135 -134zM195 1124l134 135l137 -137l-135 -133z" />
    <glyph glyph-name="uni067D.medi" unicode="&#x67d;" horiz-adv-x="859" 
d="M-79 75q0 32 22.5 53.5t52.5 21.5q49 0 104.5 5t105 16.5t88 30.5t55.5 48q23 39 29.5 87.5t3 95.5t-12.5 86.5t-18 60.5l140 55q1 -3 10 -27.5t18 -64t14.5 -90.5t0.5 -105h1q-2 -65 41 -108q24 -25 52.5 -42.5t64.5 -28t81 -15t101 -4.5v-150q-128 0 -232 30t-176 105
l-9 10q-30 -51 -77 -80.5t-106.5 -43.5t-128.5 -17.5t-144 -3.5h-6q-30 0 -52.5 21.5t-22.5 53.5zM163 1367l136 -136l-134 -134l-138 135zM348 1232l136 135l136 -136l-135 -134zM190 950l134 135l137 -137l-135 -133z" />
    <glyph glyph-name="uni067D.fina" unicode="&#x67d;" horiz-adv-x="2049" 
d="M1815 228q13 -21 44 -35.5t67 -24t71 -13.5t56 -4v-150q-6 0 -29 1t-56 5t-72 13t-78 25.5t-73 41t-57 60.5q-21 32 -30 67q-58 -43 -134.5 -81.5t-175.5 -68t-222 -46.5t-273 -17q-257 0 -425.5 62.5t-248.5 188.5q-32 50 -47 103.5t-17.5 106t4.5 102.5t19 93.5
t26.5 79.5t25.5 60l136 -65q-7 -14 -17 -39.5t-20 -58t-17 -70.5t-7 -77.5t9 -79t32 -74.5q57 -90 195.5 -136t351.5 -46q153 0 273 18.5t212 49.5t158.5 70t113 80.5t75 82t45 73t22 53.5t6.5 25l148 -25q0 -3 -3.5 -18.5t-12 -40.5t-23.5 -57t-39 -69q-49 -108 -13 -165z
M840 1067l136 -136l-134 -134l-138 135zM1025 932l136 135l136 -136l-135 -134zM867 650l134 135l137 -137l-135 -133z" />
    <glyph glyph-name="uni067F.init" unicode="&#x67f;" horiz-adv-x="773" arabic-form="initial" 
d="M-76 74q0 32 22.5 54t53.5 22h259q70 -1 117.5 1t78 11t47.5 28t27 52q6 20 5 54.5t-8.5 78t-19 92.5t-26 99.5t-30.5 98.5t-31 88l141 53q7 -19 21.5 -60t31 -95t33 -117t27 -124t12 -116.5t-10.5 -94.5q-21 -69 -59 -108.5t-87 -60t-106 -25.5t-116 -5h-300h-6
q-31 0 -53.5 21t-22.5 53zM600 1402l-134 -135l-137 136l136 135zM281 1402l-136 -135l-135 136l134 135zM598 1051l-134 -135l-137 136l136 135zM279 1051l-136 -135l-135 136l134 135z" />
    <glyph glyph-name="uni067F.medi" unicode="&#x67f;" horiz-adv-x="874" arabic-form="medial" 
d="M-64 75q0 32 22.5 53.5t52.5 21.5q49 0 104.5 5t105 16.5t88 30.5t55.5 48q23 39 29.5 87.5t3 95.5t-12.5 86.5t-18 60.5l140 55q1 -3 10 -27.5t18 -64t14.5 -90.5t0.5 -105h1q-2 -65 41 -108q24 -25 52.5 -42.5t64.5 -28t81 -15t101 -4.5v-150q-128 0 -232 30t-176 105
l-9 10q-30 -51 -77 -80.5t-106.5 -43.5t-128.5 -17.5t-144 -3.5h-6q-30 0 -52.5 21.5t-22.5 53.5zM658 1293l-134 -135l-137 136l136 135zM339 1293l-136 -135l-135 136l134 135zM656 942l-134 -135l-137 136l136 135zM337 942l-136 -135l-135 136l134 135z" />
    <glyph glyph-name="uni067F.fina" unicode="&#x67f;" horiz-adv-x="2039" arabic-form="final" 
d="M1807 228q13 -21 44 -35.5t67 -24t71 -13.5t56 -4v-150q-6 0 -29 1t-56 5t-72 13t-78 25.5t-73 41t-57 60.5q-21 32 -30 67q-58 -43 -134.5 -81.5t-175.5 -68t-222 -46.5t-273 -17q-257 0 -425.5 62.5t-248.5 188.5q-32 50 -47 103.5t-17.5 106t4.5 102.5t19 93.5
t26.5 79.5t25.5 60l136 -65q-7 -14 -17 -39.5t-20 -58t-17 -70.5t-7 -77.5t9 -79t32 -74.5q57 -90 195.5 -136t351.5 -46q153 0 273 18.5t212 49.5t158.5 70t113 80.5t75 82t45 73t22 53.5t6.5 25l148 -25q0 -3 -3.5 -18.5t-12 -40.5t-23.5 -57t-39 -69q-49 -108 -13 -165z
M1256 935l-134 -135l-137 136l136 135zM937 935l-136 -135l-135 136l134 135zM1254 584l-134 -135l-137 136l136 135zM935 584l-136 -135l-135 136l134 135z" />
    <glyph glyph-name="uni0680.init" unicode="&#x680;" horiz-adv-x="791" arabic-form="initial" 
d="M-74 74q0 32 22.5 54t53.5 22h259q70 -1 117.5 1t78 11t47.5 28t27 52q6 20 5 54.5t-8.5 78t-19 92.5t-26 99.5t-30.5 98.5t-31 88l141 53q7 -19 21.5 -60t31 -95t33 -117t27 -124t12 -116.5t-10.5 -94.5q-21 -69 -59 -108.5t-87 -60t-106 -25.5t-116 -5h-300h-6
q-31 0 -53.5 21t-22.5 53zM651 -312l-134 -135l-137 136l136 135zM332 -312l-136 -135l-135 136l134 135zM649 -663l-134 -135l-137 136l136 135zM330 -663l-136 -135l-135 136l134 135z" />
    <glyph glyph-name="uni0680.medi" unicode="&#x680;" horiz-adv-x="874" arabic-form="medial" 
d="M-72 75q0 32 22.5 53.5t52.5 21.5q49 0 104.5 5t105 16.5t88 30.5t55.5 48q23 39 29.5 87.5t3 95.5t-12.5 86.5t-18 60.5l140 55q1 -3 10 -27.5t18 -64t14.5 -90.5t0.5 -105h1q-2 -65 41 -108q24 -25 52.5 -42.5t64.5 -28t81 -15t101 -4.5v-150q-128 0 -232 30t-176 105
l-9 10q-30 -51 -77 -80.5t-106.5 -43.5t-128.5 -17.5t-144 -3.5h-6q-30 0 -52.5 21.5t-22.5 53.5zM666 -321l-134 -135l-137 136l136 135zM347 -321l-136 -135l-135 136l134 135zM664 -672l-134 -135l-137 136l136 135zM345 -672l-136 -135l-135 136l134 135z" />
    <glyph glyph-name="uni0680.fina" unicode="&#x680;" horiz-adv-x="2034" arabic-form="final" 
d="M1804 228q13 -21 44 -35.5t67 -24t71 -13.5t56 -4v-150q-6 0 -29 1t-56 5t-72 13t-78 25.5t-73 41t-57 60.5q-21 32 -30 67q-58 -43 -134.5 -81.5t-175.5 -68t-222 -46.5t-273 -17q-257 0 -425.5 62.5t-248.5 188.5q-32 50 -47 103.5t-17.5 106t4.5 102.5t19 93.5
t26.5 79.5t25.5 60l136 -65q-7 -14 -17 -39.5t-20 -58t-17 -70.5t-7 -77.5t9 -79t32 -74.5q57 -90 195.5 -136t351.5 -46q153 0 273 18.5t212 49.5t158.5 70t113 80.5t75 82t45 73t22 53.5t6.5 25l148 -25q0 -3 -3.5 -18.5t-12 -40.5t-23.5 -57t-39 -69q-49 -108 -13 -165z
M1194 -305l-134 -135l-137 136l136 135zM875 -305l-136 -135l-135 136l134 135zM1192 -656l-134 -135l-137 136l136 135zM873 -656l-136 -135l-135 136l134 135z" />
    <glyph glyph-name="uni0681.init" unicode="&#x681;" horiz-adv-x="1516" 
d="M-76 74q0 32 22.5 54t53.5 22q137 0 274.5 23.5t265.5 60t242 81.5t204 89q30 16 65.5 33.5t72.5 35.5q-78 17 -143 36.5t-119.5 39.5t-101 39.5t-86.5 36.5q-66 30 -115 48t-94 18q-37 0 -68.5 -19t-58.5 -50t-50.5 -70t-43.5 -78l-133 69q19 36 48.5 87t72.5 98.5
t100.5 80.5t132.5 33q34 0 66.5 -6t65 -16.5t66.5 -25t72 -30.5q50 -22 110.5 -47.5t137.5 -50t173 -47.5t218 -40l22 -141q-62 -31 -124 -61q-53 -26 -112.5 -55t-107.5 -52q-96 -46 -214 -94t-252 -87t-282 -64t-304 -25q-31 0 -53.5 21t-22.5 53zM241 989l-45 88
q14 8 51.5 26.5t85.5 39.5q-10 5 -17 11.5t-12 11.5q-39 35 -54.5 81.5t-1.5 90.5q48 154 204 154q34 0 65 -10.5t55 -23.5t39.5 -24.5t18.5 -14.5l-66 -76q-6 5 -17.5 13t-27 16t-33 13.5t-34.5 5.5q-18 0 -34.5 -3.5t-30 -12.5t-25 -25.5t-19.5 -42.5q-3 -11 3 -31t25 -38
q7 -6 18.5 -13t28 -13t39 -9.5t51.5 -0.5q5 0 10 0.5t10 0.5q21 4 44 10t51 17l36 -94q-39 -16 -74 -24t-66 -11q-24 -4 -59.5 -16.5t-74.5 -29t-77 -34t-67 -32.5z" />
    <glyph glyph-name="uni0681.medi" unicode="&#x681;" horiz-adv-x="1637" 
d="M-75 75q0 32 22.5 54t53.5 22q141 0 274 23t252 58.5t219.5 78t177.5 81.5l67 32l139 67q-78 18 -143 38t-120 40t-101.5 39.5t-86.5 36.5q-66 29 -115 47.5t-93 18.5q-38 0 -69.5 -19t-58.5 -50t-50 -70t-44 -78l-133 68q13 24 30 56t40 65t51.5 65.5t63.5 57.5
t77.5 40.5t92.5 15.5q34 0 66.5 -6t65 -16.5t66.5 -25t72 -30.5q50 -22 110.5 -47.5t137.5 -50t173 -47.5t217 -40l23 -143q-28 -13 -61 -29q-28 -14 -63.5 -31t-73.5 -35q0 -78 39.5 -120.5t103.5 -62t143 -23t159 -3.5v-151q-37 0 -95 1.5t-123.5 9.5t-131.5 25.5
t-119.5 49.5t-86.5 82t-33 122q0 2 -0.5 0t-2.5 -3q-16 -8 -32.5 -15.5t-34.5 -16.5q-81 -41 -186.5 -85.5t-230.5 -82t-268 -62.5t-299 -25h-5q-31 0 -53.5 21t-22.5 53zM342 980l-45 88q14 8 51.5 26.5t85.5 39.5q-10 5 -17 11.5t-12 11.5q-39 35 -54.5 81.5t-1.5 90.5
q48 154 204 154q34 0 65 -10.5t55 -23.5t39.5 -24.5t18.5 -14.5l-66 -76q-6 5 -17.5 13t-27 16t-33 13.5t-34.5 5.5q-18 0 -34.5 -3.5t-30 -12.5t-25 -25.5t-19.5 -42.5q-3 -11 3 -31t25 -38q7 -6 18.5 -13t28 -13t39 -9.5t51.5 -0.5q5 0 10 0.5t10 0.5q21 4 44 10t51 17
l36 -94q-39 -16 -74 -24t-66 -11q-24 -4 -59.5 -16.5t-74.5 -29t-77 -34t-67 -32.5z" />
    <glyph glyph-name="uni0681.fina" unicode="&#x681;" horiz-adv-x="1697" 
d="M1141 429q-81 -15 -169.5 -37t-174 -54.5t-162 -76.5t-135 -102t-92.5 -131t-34 -164q0 -254 196 -375q80 -50 183.5 -73.5t219 -20t236.5 33t237 85.5l66 -135q-139 -67 -284 -100t-283 -33q-130 0 -246 28t-209 88q-132 82 -200 209.5t-68 292.5q0 113 37.5 204.5
t101 163.5t148 127t178.5 95.5t192.5 68.5t189.5 46q-78 29 -138.5 58.5t-111.5 55.5q-63 33 -110.5 54t-92.5 21q-20 0 -42 -4.5t-44 -13t-42 -20t-36 -25.5q-32 -26 -56.5 -57t-42 -57t-27 -44t-10.5 -19l-136 65q1 2 13 24.5t34.5 56.5t54.5 73t73 74q54 45 124.5 70.5
t136.5 25.5q36 0 69 -7t65.5 -19t66 -28t70.5 -35q47 -25 104.5 -53t130.5 -55t164 -52t205 -43l-10 -150q-3 0 -55 -2t-135 -13q0 -74 19 -130t58 -93q23 -23 57 -37.5t71.5 -23t75 -12t67.5 -4.5t48.5 -0.5t19.5 0.5v-150h-15t-32 -0.5t-36 -0.5h-27q-27 0 -67.5 4
t-86 16.5t-92.5 36t-88 63.5q-60 56 -90 133.5t-32 176.5zM388 1023l-45 88q14 8 51.5 26.5t85.5 39.5q-10 5 -17 11.5t-12 11.5q-39 35 -54.5 81.5t-1.5 90.5q48 154 204 154q34 0 65 -10.5t55 -23.5t39.5 -24.5t18.5 -14.5l-66 -76q-6 5 -17.5 13t-27 16t-33 13.5
t-34.5 5.5q-18 0 -34.5 -3.5t-30 -12.5t-25 -25.5t-19.5 -42.5q-3 -11 3 -31t25 -38q7 -6 18.5 -13t28 -13t39 -9.5t51.5 -0.5q5 0 10 0.5t10 0.5q21 4 44 10t51 17l36 -94q-39 -16 -74 -24t-66 -11q-24 -4 -59.5 -16.5t-74.5 -29t-77 -34t-67 -32.5z" />
    <glyph glyph-name="uni0682.init" unicode="&#x682;" horiz-adv-x="1526" 
d="M-76 74q0 32 22.5 54t53.5 22q137 0 274.5 23.5t265.5 60t242 81.5t204 89q30 16 65.5 33.5t72.5 35.5q-78 17 -143 36.5t-119.5 39.5t-101 39.5t-86.5 36.5q-66 30 -115 48t-94 18q-37 0 -68.5 -19t-58.5 -50t-50.5 -70t-43.5 -78l-133 69q19 36 48.5 87t72.5 98.5
t100.5 80.5t132.5 33q34 0 66.5 -6t65 -16.5t66.5 -25t72 -30.5q50 -22 110.5 -47.5t137.5 -50t173 -47.5t218 -40l22 -141q-62 -31 -124 -61q-53 -26 -112.5 -55t-107.5 -52q-96 -46 -214 -94t-252 -87t-282 -64t-304 -25q-31 0 -53.5 21t-22.5 53zM244 1496l143 142
l142 -143l-142 -143zM247 1140l143 142l142 -143l-142 -143z" />
    <glyph glyph-name="uni0682.medi" unicode="&#x682;" horiz-adv-x="1642" 
d="M-68 75q0 32 22.5 54t53.5 22q141 0 274 23t252 58.5t219.5 78t177.5 81.5l67 32l139 67q-78 18 -143 38t-120 40t-101.5 39.5t-86.5 36.5q-66 29 -115 47.5t-93 18.5q-38 0 -69.5 -19t-58.5 -50t-50 -70t-44 -78l-133 68q13 24 30 56t40 65t51.5 65.5t63.5 57.5
t77.5 40.5t92.5 15.5q34 0 66.5 -6t65 -16.5t66.5 -25t72 -30.5q50 -22 110.5 -47.5t137.5 -50t173 -47.5t217 -40l23 -143q-28 -13 -61 -29q-28 -14 -63.5 -31t-73.5 -35q0 -78 39.5 -120.5t103.5 -62t143 -23t159 -3.5v-151q-37 0 -95 1.5t-123.5 9.5t-131.5 25.5
t-119.5 49.5t-86.5 82t-33 122q0 2 -0.5 0t-2.5 -3q-16 -8 -32.5 -15.5t-34.5 -16.5q-81 -41 -186.5 -85.5t-230.5 -82t-268 -62.5t-299 -25h-5q-31 0 -53.5 21t-22.5 53zM320 1535l143 142l142 -143l-142 -143zM323 1179l143 142l142 -143l-142 -143z" />
    <glyph glyph-name="uni0682.fina" unicode="&#x682;" horiz-adv-x="1692" 
d="M1141 429q-81 -15 -169.5 -37t-174 -54.5t-162 -76.5t-135 -102t-92.5 -131t-34 -164q0 -254 196 -375q80 -50 183.5 -73.5t219 -20t236.5 33t237 85.5l66 -135q-139 -67 -284 -100t-283 -33q-130 0 -246 28t-209 88q-132 82 -200 209.5t-68 292.5q0 113 37.5 204.5
t101 163.5t148 127t178.5 95.5t192.5 68.5t189.5 46q-78 29 -138.5 58.5t-111.5 55.5q-63 33 -110.5 54t-92.5 21q-20 0 -42 -4.5t-44 -13t-42 -20t-36 -25.5q-32 -26 -56.5 -57t-42 -57t-27 -44t-10.5 -19l-136 65q1 2 13 24.5t34.5 56.5t54.5 73t73 74q54 45 124.5 70.5
t136.5 25.5q36 0 69 -7t65.5 -19t66 -28t70.5 -35q47 -25 104.5 -53t130.5 -55t164 -52t205 -43l-10 -150q-3 0 -55 -2t-135 -13q0 -74 19 -130t58 -93q23 -23 57 -37.5t71.5 -23t75 -12t67.5 -4.5t48.5 -0.5t19.5 0.5v-150h-15t-32 -0.5t-36 -0.5h-27q-27 0 -67.5 4
t-86 16.5t-92.5 36t-88 63.5q-60 56 -90 133.5t-32 176.5zM396 1529l143 142l142 -143l-142 -143zM399 1173l143 142l142 -143l-142 -143z" />
    <glyph glyph-name="uni0683.init" unicode="&#x683;" horiz-adv-x="1452" arabic-form="initial" 
d="M-76 74q0 32 22.5 54t53.5 22q137 0 274.5 23.5t265.5 60t242 81.5t204 89q30 16 65.5 33.5t72.5 35.5q-78 17 -143 36.5t-119.5 39.5t-101 39.5t-86.5 36.5q-66 30 -115 48t-94 18q-37 0 -68.5 -19t-58.5 -50t-50.5 -70t-43.5 -78l-133 69q19 36 48.5 87t72.5 98.5
t100.5 80.5t132.5 33q34 0 66.5 -6t65 -16.5t66.5 -25t72 -30.5q50 -22 110.5 -47.5t137.5 -50t173 -47.5t218 -40l22 -141q-62 -31 -124 -61q-53 -26 -112.5 -55t-107.5 -52q-96 -46 -214 -94t-252 -87t-282 -64t-304 -25q-31 0 -53.5 21t-22.5 53zM508 -316l-136 -135
l-135 136l134 135zM850 -317l-134 -135l-136 136l135 135z" />
    <glyph glyph-name="uni0683.medi" unicode="&#x683;" horiz-adv-x="1642" arabic-form="medial" 
d="M-71 75q0 32 22.5 54t53.5 22q141 0 274 23t252 58.5t219.5 78t177.5 81.5l67 32l139 67q-78 18 -143 38t-120 40t-101.5 39.5t-86.5 36.5q-66 29 -115 47.5t-93 18.5q-38 0 -69.5 -19t-58.5 -50t-50 -70t-44 -78l-133 68q13 24 30 56t40 65t51.5 65.5t63.5 57.5
t77.5 40.5t92.5 15.5q34 0 66.5 -6t65 -16.5t66.5 -25t72 -30.5q50 -22 110.5 -47.5t137.5 -50t173 -47.5t217 -40l23 -143q-28 -13 -61 -29q-28 -14 -63.5 -31t-73.5 -35q0 -78 39.5 -120.5t103.5 -62t143 -23t159 -3.5v-151q-37 0 -95 1.5t-123.5 9.5t-131.5 25.5
t-119.5 49.5t-86.5 82t-33 122q0 2 -0.5 0t-2.5 -3q-16 -8 -32.5 -15.5t-34.5 -16.5q-81 -41 -186.5 -85.5t-230.5 -82t-268 -62.5t-299 -25h-5q-31 0 -53.5 21t-22.5 53zM726 -314l-136 -135l-135 136l134 135zM1068 -315l-134 -135l-136 136l135 135z" />
    <glyph glyph-name="uni0683.fina" unicode="&#x683;" horiz-adv-x="1697" arabic-form="final" 
d="M1141 429q-81 -15 -169.5 -37t-174 -54.5t-162 -76.5t-135 -102t-92.5 -131t-34 -164q0 -254 196 -375q80 -50 183.5 -73.5t219 -20t236.5 33t237 85.5l66 -135q-139 -67 -284 -100t-283 -33q-130 0 -246 28t-209 88q-132 82 -200 209.5t-68 292.5q0 113 37.5 204.5
t101 163.5t148 127t178.5 95.5t192.5 68.5t189.5 46q-78 29 -138.5 58.5t-111.5 55.5q-63 33 -110.5 54t-92.5 21q-20 0 -42 -4.5t-44 -13t-42 -20t-36 -25.5q-32 -26 -56.5 -57t-42 -57t-27 -44t-10.5 -19l-136 65q1 2 13 24.5t34.5 56.5t54.5 73t73 74q54 45 124.5 70.5
t136.5 25.5q36 0 69 -7t65.5 -19t66 -28t70.5 -35q47 -25 104.5 -53t130.5 -55t164 -52t205 -43l-10 -150q-3 0 -55 -2t-135 -13q0 -74 19 -130t58 -93q23 -23 57 -37.5t71.5 -23t75 -12t67.5 -4.5t48.5 -0.5t19.5 0.5v-150h-15t-32 -0.5t-36 -0.5h-27q-27 0 -67.5 4
t-86 16.5t-92.5 36t-88 63.5q-60 56 -90 133.5t-32 176.5zM865 -141l-136 -135l-135 136l134 135zM1207 -142l-134 -135l-136 136l135 135z" />
    <glyph glyph-name="uni0684.init" unicode="&#x684;" horiz-adv-x="1516" arabic-form="initial" 
d="M-76 74q0 32 22.5 54t53.5 22q137 0 274.5 23.5t265.5 60t242 81.5t204 89q30 16 65.5 33.5t72.5 35.5q-78 17 -143 36.5t-119.5 39.5t-101 39.5t-86.5 36.5q-66 30 -115 48t-94 18q-37 0 -68.5 -19t-58.5 -50t-50.5 -70t-43.5 -78l-133 69q19 36 48.5 87t72.5 98.5
t100.5 80.5t132.5 33q34 0 66.5 -6t65 -16.5t66.5 -25t72 -30.5q50 -22 110.5 -47.5t137.5 -50t173 -47.5t218 -40l22 -141q-62 -31 -124 -61q-53 -26 -112.5 -55t-107.5 -52q-96 -46 -214 -94t-252 -87t-282 -64t-304 -25q-31 0 -53.5 21t-22.5 53zM351 -264l143 142
l142 -143l-142 -143zM354 -620l143 142l142 -143l-142 -143z" />
    <glyph glyph-name="uni0684.medi" unicode="&#x684;" horiz-adv-x="1642" arabic-form="medial" 
d="M-74 75q0 32 22.5 54t53.5 22q141 0 274 23t252 58.5t219.5 78t177.5 81.5l67 32l139 67q-78 18 -143 38t-120 40t-101.5 39.5t-86.5 36.5q-66 29 -115 47.5t-93 18.5q-38 0 -69.5 -19t-58.5 -50t-50 -70t-44 -78l-133 68q13 24 30 56t40 65t51.5 65.5t63.5 57.5
t77.5 40.5t92.5 15.5q34 0 66.5 -6t65 -16.5t66.5 -25t72 -30.5q50 -22 110.5 -47.5t137.5 -50t173 -47.5t217 -40l23 -143q-28 -13 -61 -29q-28 -14 -63.5 -31t-73.5 -35q0 -78 39.5 -120.5t103.5 -62t143 -23t159 -3.5v-151q-37 0 -95 1.5t-123.5 9.5t-131.5 25.5
t-119.5 49.5t-86.5 82t-33 122q0 2 -0.5 0t-2.5 -3q-16 -8 -32.5 -15.5t-34.5 -16.5q-81 -41 -186.5 -85.5t-230.5 -82t-268 -62.5t-299 -25h-5q-31 0 -53.5 21t-22.5 53zM573 -274l143 142l142 -143l-142 -143zM576 -630l143 142l142 -143l-142 -143z" />
    <glyph glyph-name="uni0684.fina" unicode="&#x684;" horiz-adv-x="1551" arabic-form="final" 
d="M1297 228q35 -34 80.5 -50.5t86 -22.5t68.5 -5l28 1v-150q-1 0 -8.5 -0.5t-24.5 -0.5q-27 0 -67.5 4t-86.5 16.5t-93 36t-88 63.5q-117 111 -122 310q-81 -15 -169.5 -37t-174 -54.5t-162 -76.5t-135 -102t-92.5 -131t-34 -164q0 -253 196 -375q80 -50 183.5 -73.5
t219 -20t236.5 33t237 85.5l66 -135q-138 -67 -283 -100t-284 -33q-130 0 -246 28t-209 88q-132 82 -199.5 209.5t-67.5 292.5q0 113 37.5 204.5t101 163.5t147.5 127t178 95.5t192.5 68.5t190.5 46q-78 29 -139 58.5t-112 55.5q-63 33 -110.5 54t-92.5 21
q-40 0 -85.5 -17.5t-78.5 -45.5q-32 -26 -56.5 -57t-42 -57t-27 -44t-9.5 -19l-136 65q1 2 13 24.5t34 56.5t54 73t74 74q27 22 58.5 40t65 30.5t68.5 19t68 6.5q36 0 69 -7t66 -19t66.5 -28t70.5 -35q47 -25 104.5 -53t130 -55t163.5 -52t205 -43l-10 -150q-3 0 -54.5 -2
t-135.5 -13q0 -74 19 -130t58 -93zM679 50l143 142l142 -143l-142 -143zM682 -306l143 142l142 -143l-142 -143z" />
    <glyph glyph-name="uni0685.init" unicode="&#x685;" horiz-adv-x="1521" 
d="M-76 74q0 32 22.5 54t53.5 22q137 0 274.5 23.5t265.5 60t242 81.5t204 89q30 16 65.5 33.5t72.5 35.5q-78 17 -143 36.5t-119.5 39.5t-101 39.5t-86.5 36.5q-66 30 -115 48t-94 18q-37 0 -68.5 -19t-58.5 -50t-50.5 -70t-43.5 -78l-133 69q19 36 48.5 87t72.5 98.5
t100.5 80.5t132.5 33q34 0 66.5 -6t65 -16.5t66.5 -25t72 -30.5q50 -22 110.5 -47.5t137.5 -50t173 -47.5t218 -40l22 -141q-62 -31 -124 -61q-53 -26 -112.5 -55t-107.5 -52q-96 -46 -214 -94t-252 -87t-282 -64t-304 -25q-31 0 -53.5 21t-22.5 53zM360 1140l-127 -129
l-130 130l129 128zM542 1413l-127 -129l-129 130l128 128zM588 1011l-127 130l126 128l130 -129z" />
    <glyph glyph-name="uni0685.medi" unicode="&#x685;" horiz-adv-x="1642" 
d="M-74 75q0 32 22.5 54t53.5 22q141 0 274 23t252 58.5t219.5 78t177.5 81.5l67 32l139 67q-78 18 -143 38t-120 40t-101.5 39.5t-86.5 36.5q-66 29 -115 47.5t-93 18.5q-38 0 -69.5 -19t-58.5 -50t-50 -70t-44 -78l-133 68q13 24 30 56t40 65t51.5 65.5t63.5 57.5
t77.5 40.5t92.5 15.5q34 0 66.5 -6t65 -16.5t66.5 -25t72 -30.5q50 -22 110.5 -47.5t137.5 -50t173 -47.5t217 -40l23 -143q-28 -13 -61 -29q-28 -14 -63.5 -31t-73.5 -35q0 -78 39.5 -120.5t103.5 -62t143 -23t159 -3.5v-151q-37 0 -95 1.5t-123.5 9.5t-131.5 25.5
t-119.5 49.5t-86.5 82t-33 122q0 2 -0.5 0t-2.5 -3q-16 -8 -32.5 -15.5t-34.5 -16.5q-81 -41 -186.5 -85.5t-230.5 -82t-268 -62.5t-299 -25h-5q-31 0 -53.5 21t-22.5 53zM456 1137l-127 -129l-130 130l129 128zM638 1410l-127 -129l-129 130l128 128zM684 1008l-127 130
l126 128l130 -129z" />
    <glyph glyph-name="uni0685.fina" unicode="&#x685;" horiz-adv-x="1692" 
d="M1141 429q-81 -15 -169.5 -37t-174 -54.5t-162 -76.5t-135 -102t-92.5 -131t-34 -164q0 -254 196 -375q80 -50 183.5 -73.5t219 -20t236.5 33t237 85.5l66 -135q-139 -67 -284 -100t-283 -33q-130 0 -246 28t-209 88q-132 82 -200 209.5t-68 292.5q0 113 37.5 204.5
t101 163.5t148 127t178.5 95.5t192.5 68.5t189.5 46q-78 29 -138.5 58.5t-111.5 55.5q-63 33 -110.5 54t-92.5 21q-20 0 -42 -4.5t-44 -13t-42 -20t-36 -25.5q-32 -26 -56.5 -57t-42 -57t-27 -44t-10.5 -19l-136 65q1 2 13 24.5t34.5 56.5t54.5 73t73 74q54 45 124.5 70.5
t136.5 25.5q36 0 69 -7t65.5 -19t66 -28t70.5 -35q47 -25 104.5 -53t130.5 -55t164 -52t205 -43l-10 -150q-3 0 -55 -2t-135 -13q0 -74 19 -130t58 -93q23 -23 57 -37.5t71.5 -23t75 -12t67.5 -4.5t48.5 -0.5t19.5 0.5v-150h-15t-32 -0.5t-36 -0.5h-27q-27 0 -67.5 4
t-86 16.5t-92.5 36t-88 63.5q-60 56 -90 133.5t-32 176.5zM477 1256l-127 -129l-130 130l129 128zM659 1529l-127 -129l-129 130l128 128zM705 1127l-127 130l126 128l130 -129z" />
    <glyph glyph-name="uni0687.init" unicode="&#x687;" horiz-adv-x="1494" arabic-form="initial" 
d="M-76 74q0 32 22.5 54t53.5 22q137 0 274.5 23.5t265.5 60t242 81.5t204 89q30 16 65.5 33.5t72.5 35.5q-78 17 -143 36.5t-119.5 39.5t-101 39.5t-86.5 36.5q-66 30 -115 48t-94 18q-37 0 -68.5 -19t-58.5 -50t-50.5 -70t-43.5 -78l-133 69q19 36 48.5 87t72.5 98.5
t100.5 80.5t132.5 33q34 0 66.5 -6t65 -16.5t66.5 -25t72 -30.5q50 -22 110.5 -47.5t137.5 -50t173 -47.5t218 -40l22 -141q-62 -31 -124 -61q-53 -26 -112.5 -55t-107.5 -52q-96 -46 -214 -94t-252 -87t-282 -64t-304 -25q-31 0 -53.5 21t-22.5 53zM919 -285l-134 -135
l-137 136l136 135zM600 -285l-136 -135l-135 136l134 135zM917 -636l-134 -135l-137 136l136 135zM598 -636l-136 -135l-135 136l134 135z" />
    <glyph glyph-name="uni0687.medi" unicode="&#x687;" horiz-adv-x="1637" arabic-form="medial" 
d="M-72 75q0 32 22.5 54t53.5 22q141 0 274 23t252 58.5t219.5 78t177.5 81.5l67 32l139 67q-78 18 -143 38t-120 40t-101.5 39.5t-86.5 36.5q-66 29 -115 47.5t-93 18.5q-38 0 -69.5 -19t-58.5 -50t-50 -70t-44 -78l-133 68q13 24 30 56t40 65t51.5 65.5t63.5 57.5
t77.5 40.5t92.5 15.5q34 0 66.5 -6t65 -16.5t66.5 -25t72 -30.5q50 -22 110.5 -47.5t137.5 -50t173 -47.5t217 -40l23 -143q-28 -13 -61 -29q-28 -14 -63.5 -31t-73.5 -35q0 -78 39.5 -120.5t103.5 -62t143 -23t159 -3.5v-151q-37 0 -95 1.5t-123.5 9.5t-131.5 25.5
t-119.5 49.5t-86.5 82t-33 122q0 2 -0.5 0t-2.5 -3q-16 -8 -32.5 -15.5t-34.5 -16.5q-81 -41 -186.5 -85.5t-230.5 -82t-268 -62.5t-299 -25h-5q-31 0 -53.5 21t-22.5 53zM1031 -229l-134 -135l-137 136l136 135zM712 -229l-136 -135l-135 136l134 135zM1029 -580l-134 -135
l-137 136l136 135zM710 -580l-136 -135l-135 136l134 135z" />
    <glyph glyph-name="uni0687.fina" unicode="&#x687;" horiz-adv-x="1551" arabic-form="final" 
d="M1297 228q35 -34 80.5 -50.5t86 -22.5t68.5 -5l28 1v-150q-1 0 -8.5 -0.5t-24.5 -0.5q-27 0 -67.5 4t-86.5 16.5t-93 36t-88 63.5q-117 111 -122 310q-81 -15 -169.5 -37t-174 -54.5t-162 -76.5t-135 -102t-92.5 -131t-34 -164q0 -253 196 -375q80 -50 183.5 -73.5
t219 -20t236.5 33t237 85.5l66 -135q-138 -67 -283 -100t-284 -33q-130 0 -246 28t-209 88q-132 82 -199.5 209.5t-67.5 292.5q0 113 37.5 204.5t101 163.5t147.5 127t178 95.5t192.5 68.5t190.5 46q-78 29 -139 58.5t-112 55.5q-63 33 -110.5 54t-92.5 21
q-40 0 -85.5 -17.5t-78.5 -45.5q-32 -26 -56.5 -57t-42 -57t-27 -44t-9.5 -19l-136 65q1 2 13 24.5t34 56.5t54 73t74 74q27 22 58.5 40t65 30.5t68.5 19t68 6.5q36 0 69 -7t66 -19t66.5 -28t70.5 -35q47 -25 104.5 -53t130 -55t163.5 -52t205 -43l-10 -150q-3 0 -54.5 -2
t-135.5 -13q0 -74 19 -130t58 -93zM1092 23l-134 -135l-137 136l136 135zM773 23l-136 -135l-135 136l134 135zM1090 -328l-134 -135l-137 136l136 135zM771 -328l-136 -135l-135 136l134 135z" />
    <glyph glyph-name="uni0689.fina" unicode="&#x689;" horiz-adv-x="1127" 
d="M1120 150h21v-150h-21q-150 2 -246 126q-25 -23 -60.5 -45.5t-83 -40.5t-108 -29t-136.5 -11q-110 0 -185.5 22.5t-122 50t-67 51.5t-21.5 27l102 115q0 -1 18.5 -19t55.5 -39.5t92 -39.5t128 -18q73 -1 126.5 11t91 30t60 37.5t34.5 34.5l-8 20t-7 21l-270 654l138 57
l301 -728v-1q23 -49 47 -76.5t46.5 -40.5t41.5 -16t33 -3zM617 1472q17 0 32.5 9.5t27 24.5t18.5 33t7 35t-7 35t-18.5 32.5t-27 24t-32.5 9.5q-18 0 -34 -9.5t-27.5 -24t-18.5 -32.5t-7 -35t7 -35t18.5 -33t27.5 -24.5t34 -9.5zM617 1771q36 0 70 -17t60 -48
q51 -59 51 -132q0 -35 -13 -69.5t-38 -62.5q-26 -32 -60 -49t-70 -17q-37 0 -71 17t-61 49q-24 28 -37.5 62.5t-13.5 69.5t13.5 69t37.5 63q27 31 61 48t71 17z" />
    <glyph glyph-name="uni068A.fina" unicode="&#x68a;" horiz-adv-x="1141" 
d="M1120 150h21v-150h-21q-150 2 -246 126q-25 -23 -60.5 -45.5t-83 -40.5t-108 -29t-136.5 -11q-110 0 -185.5 22.5t-122 50t-67 51.5t-21.5 27l102 115q0 -1 18.5 -19t55.5 -39.5t92 -39.5t128 -18q73 -1 126.5 11t91 30t60 37.5t34.5 34.5l-8 20t-7 21l-270 654l138 57
l301 -728v-1q23 -49 47 -76.5t46.5 -40.5t41.5 -16t33 -3zM479 -327l135 135l137 -136l-136 -135z" />
    <glyph glyph-name="uni068B.fina" unicode="&#x68b;" horiz-adv-x="1141" 
d="M1120 150h21v-150h-21q-150 2 -246 126q-25 -23 -60.5 -45.5t-83 -40.5t-108 -29t-136.5 -11q-110 0 -185.5 22.5t-122 50t-67 51.5t-21.5 27l102 115q0 -1 18.5 -19t55.5 -39.5t92 -39.5t128 -18q73 -1 126.5 11t91 30t60 37.5t34.5 34.5l-8 20t-7 21l-270 654l138 57
l301 -728v-1q23 -49 47 -76.5t46.5 -40.5t41.5 -16t33 -3zM479 -327l135 135l137 -136l-136 -135zM878 1527q42 -29 60.5 -75.5t10.5 -100.5q-10 -63 -49.5 -110.5t-97.5 -66.5q-34 -11 -61.5 -17.5t-51.5 -10.5t-46 -5t-43 -1h-38q-11 0 -23 0.5t-25 0.5q-82 0 -137.5 5.5
t-89 12t-49 12.5t-18.5 8l19 33l17 33q1 0 21.5 -7t73.5 -14q8 12 28 39.5t49 62.5q5 18 7.5 51t1.5 76.5t-3.5 94.5t-6.5 104.5t-9 106.5t-10 100l75 7q3 -24 8 -73.5t10.5 -111.5t8.5 -131t2 -132l14 14t15 14q46 41 92.5 67t90.5 36.5t83 5t71 -27.5zM875 1362
q5 32 -6 59t-34 44q-41 29 -107 8.5t-137 -83.5q-48 -42 -87.5 -90t-64.5 -82q17 -1 35.5 -1h39.5q14 0 26 -0.5t23 -0.5h49t48 2.5t53.5 8.5t65.5 18t63 44t33 73z" />
    <glyph glyph-name="uni068C.fina" unicode="&#x68c;" horiz-adv-x="1141" arabic-form="final" 
d="M1120 150h21v-150h-21q-150 2 -246 126q-25 -23 -60.5 -45.5t-83 -40.5t-108 -29t-136.5 -11q-110 0 -185.5 22.5t-122 50t-67 51.5t-21.5 27l102 115q0 -1 18.5 -19t55.5 -39.5t92 -39.5t128 -18q73 -1 126.5 11t91 30t60 37.5t34.5 34.5l-8 20t-7 21l-270 654l138 57
l301 -728v-1q23 -49 47 -76.5t46.5 -40.5t41.5 -16t33 -3zM537 1331l-134 -133l-137 135l135 136zM880 1331l-135 -133l-136 135l136 136z" />
    <glyph glyph-name="uni068D.fina" unicode="&#x68d;" horiz-adv-x="1141" arabic-form="final" 
d="M1120 150h21v-150h-21q-150 2 -246 126q-25 -23 -60.5 -45.5t-83 -40.5t-108 -29t-136.5 -11q-110 0 -185.5 22.5t-122 50t-67 51.5t-21.5 27l102 115q0 -1 18.5 -19t55.5 -39.5t92 -39.5t128 -18q73 -1 126.5 11t91 30t60 37.5t34.5 34.5l-8 20t-7 21l-270 654l138 57
l301 -728v-1q23 -49 47 -76.5t46.5 -40.5t41.5 -16t33 -3zM591 -313l-136 -135l-135 136l134 135zM933 -314l-134 -135l-136 136l135 135z" />
    <glyph glyph-name="uni068E.fina" unicode="&#x68e;" horiz-adv-x="1141" arabic-form="final" 
d="M1120 150h21v-150h-21q-150 2 -246 126q-25 -23 -60.5 -45.5t-83 -40.5t-108 -29t-136.5 -11q-110 0 -185.5 22.5t-122 50t-67 51.5t-21.5 27l102 115q0 -1 18.5 -19t55.5 -39.5t92 -39.5t128 -18q73 -1 126.5 11t91 30t60 37.5t34.5 34.5l-8 20t-7 21l-270 654l138 57
l301 -728v-1q23 -49 47 -76.5t46.5 -40.5t41.5 -16t33 -3zM532 1271l-127 -129l-130 130l129 128zM714 1544l-127 -129l-129 130l128 128zM760 1142l-127 130l126 128l130 -129z" />
    <glyph glyph-name="uni068F.fina" unicode="&#x68f;" horiz-adv-x="1141" 
d="M1120 150h21v-150h-21q-150 2 -246 126q-25 -23 -60.5 -45.5t-83 -40.5t-108 -29t-136.5 -11q-110 0 -185.5 22.5t-122 50t-67 51.5t-21.5 27l102 115q0 -1 18.5 -19t55.5 -39.5t92 -39.5t128 -18q73 -1 126.5 11t91 30t60 37.5t34.5 34.5l-8 20t-7 21l-270 654l138 57
l301 -728v-1q23 -49 47 -76.5t46.5 -40.5t41.5 -16t33 -3zM441 1695l136 -136l-134 -134l-138 135zM626 1560l136 135l136 -136l-135 -134zM468 1278l134 135l137 -137l-135 -133z" />
    <glyph glyph-name="uni0690.fina" unicode="&#x690;" horiz-adv-x="1141" 
d="M1120 150h21v-150h-21q-150 2 -246 126q-25 -23 -60.5 -45.5t-83 -40.5t-108 -29t-136.5 -11q-110 0 -185.5 22.5t-122 50t-67 51.5t-21.5 27l102 115q0 -1 18.5 -19t55.5 -39.5t92 -39.5t128 -18q73 -1 126.5 11t91 30t60 37.5t34.5 34.5l-8 20t-7 21l-270 654l138 57
l301 -728v-1q23 -49 47 -76.5t46.5 -40.5t41.5 -16t33 -3zM879 1628l-134 -135l-137 136l136 135zM560 1628l-136 -135l-135 136l134 135zM877 1277l-134 -135l-137 136l136 135zM558 1277l-136 -135l-135 136l134 135z" />
    <glyph glyph-name="uni0692.fina" unicode="&#x692;" horiz-adv-x="1074" 
d="M1086 151v-151h-56.5t-68.5 6.5t-73 23.5t-68 51q-2 -53 -14.5 -111.5t-41 -120.5t-74.5 -126.5t-115.5 -128t-164.5 -125.5t-220 -120l-64 135q544 252 544 622q0 48 -12 101t-29 101.5t-35 87.5t-29 59l140 79q1 -2 7.5 -18.5t17 -42.5t23.5 -60t27 -70
q30 -75 72.5 -114.5t87 -56.5t84 -19t62.5 -2zM517 642l-105 6q-18 56 -40.5 114t-48 108.5t-52 89.5t-52.5 57l52 76q22 -12 44 -38t43.5 -59t40 -69t33.5 -67.5t24.5 -54.5t12.5 -30q1 4 9 28.5t20 61t28 80t34.5 84t38.5 73.5t40 49l66 -70q-19 -18 -34.5 -43.5
t-29 -56.5t-26 -67t-25.5 -75q-15 -46 -32.5 -96t-40.5 -101z" />
    <glyph glyph-name="uni0693.fina" unicode="&#x693;" horiz-adv-x="1080" 
d="M1086 151v-151h-56.5t-68.5 6.5t-73 23.5t-68 51q-2 -53 -14.5 -111.5t-41 -120.5t-74.5 -126.5t-115.5 -128t-164.5 -125.5t-220 -120l-64 135q544 252 544 622q0 48 -12 101t-29 101.5t-35 87.5t-29 59l140 79q1 -2 7.5 -18.5t17 -42.5t23.5 -60t27 -70
q30 -75 72.5 -114.5t87 -56.5t84 -19t62.5 -2zM441 980q17 0 32.5 9.5t27 24.5t18.5 33t7 35t-7 35t-18.5 32.5t-27 24t-32.5 9.5q-18 0 -34 -9.5t-27.5 -24t-18.5 -32.5t-7 -35t7 -35t18.5 -33t27.5 -24.5t34 -9.5zM441 1279q36 0 70 -17t60 -48q51 -59 51 -132
q0 -35 -13 -69.5t-38 -62.5q-26 -32 -60 -49t-70 -17q-37 0 -71 17t-61 49q-24 28 -37.5 62.5t-13.5 69.5t13.5 69t37.5 63q27 31 61 48t71 17z" />
    <glyph glyph-name="uni0694.fina" unicode="&#x694;" horiz-adv-x="1080" 
d="M1086 151v-151h-56.5t-68.5 6.5t-73 23.5t-68 51q-2 -53 -14.5 -111.5t-41 -120.5t-74.5 -126.5t-115.5 -128t-164.5 -125.5t-220 -120l-64 135q544 252 544 622q0 48 -12 101t-29 101.5t-35 87.5t-29 59l140 79q1 -2 7.5 -18.5t17 -42.5t23.5 -60t27 -70
q30 -75 72.5 -114.5t87 -56.5t84 -19t62.5 -2zM507 -490l135 135l137 -136l-136 -135z" />
    <glyph glyph-name="uni0695.fina" unicode="&#x695;" horiz-adv-x="1074" 
d="M1086 151v-151h-56.5t-68.5 6.5t-73 23.5t-68 51q-2 -53 -14.5 -111.5t-41 -120.5t-74.5 -126.5t-115.5 -128t-164.5 -125.5t-220 -120l-64 135q544 252 544 622q0 48 -12 101t-29 101.5t-35 87.5t-29 59l140 79q1 -2 7.5 -18.5t17 -42.5t23.5 -60t27 -70
q30 -75 72.5 -114.5t87 -56.5t84 -19t62.5 -2zM690 -958l-105 6q-18 56 -40.5 114t-48 108.5t-52 89.5t-52.5 57l52 76q22 -12 44 -38t43.5 -59t40 -69t33.5 -67.5t24.5 -54.5t12.5 -30q1 4 9 28.5t20 61t28 80t34.5 84t38.5 73.5t40 49l66 -70q-19 -18 -34.5 -43.5
t-29 -56.5t-26 -67t-25.5 -75q-15 -46 -32.5 -96t-40.5 -101z" />
    <glyph glyph-name="uni0696.fina" unicode="&#x696;" horiz-adv-x="1080" 
d="M1087 151v-151h-56.5t-68.5 6.5t-73 23.5t-68 51q-2 -53 -14.5 -111.5t-41 -120.5t-74.5 -126.5t-115.5 -128t-164.5 -125.5t-220 -120l-64 135q544 252 544 622q0 48 -12 101t-29 101.5t-35 87.5t-29 59l140 79q1 -2 7.5 -18.5t17 -42.5t23.5 -60t27 -70
q30 -75 72.5 -114.5t87 -56.5t84 -19t62.5 -2zM580 -439l135 135l137 -136l-136 -135zM140 151l135 135l137 -136l-136 -135z" />
    <glyph glyph-name="uni0697.fina" unicode="&#x697;" horiz-adv-x="1074" 
d="M1086 151v-151h-56.5t-68.5 6.5t-73 23.5t-68 51q-2 -53 -14.5 -111.5t-41 -120.5t-74.5 -126.5t-115.5 -128t-164.5 -125.5t-220 -120l-64 135q544 252 544 622q0 48 -12 101t-29 101.5t-35 87.5t-29 59l140 79q1 -2 7.5 -18.5t17 -42.5t23.5 -60t27 -70
q30 -75 72.5 -114.5t87 -56.5t84 -19t62.5 -2zM417 812l-134 -133l-137 135l135 136zM760 812l-135 -133l-136 135l136 136z" />
    <glyph glyph-name="uni0699.fina" unicode="&#x699;" horiz-adv-x="1085" 
d="M1088 151v-151h-56.5t-68.5 6.5t-73 23.5t-68 51q-2 -53 -14.5 -111.5t-41 -120.5t-74.5 -126.5t-115.5 -128t-164.5 -125.5t-220 -120l-64 135q544 252 544 622q0 48 -12 101t-29 101.5t-35 87.5t-29 59l140 79q1 -2 7.5 -18.5t17 -42.5t23.5 -60t27 -70
q30 -75 72.5 -114.5t87 -56.5t84 -19t62.5 -2zM746 1161l-134 -135l-137 136l136 135zM427 1161l-136 -135l-135 136l134 135zM744 810l-134 -135l-137 136l136 135zM425 810l-136 -135l-135 136l134 135z" />
    <glyph glyph-name="uni069A.init" unicode="&#x69a;" horiz-adv-x="1752" 
d="M-76 74q0 32 22.5 53.5t52.5 21.5q63 0 114.5 18.5t93 48t72.5 65t53 70t35 64t18 45.5v3q1 1 1 3q9 31 17.5 61.5t14.5 54.5t9.5 39t3.5 16l147 -33q-1 -1 -4.5 -16.5t-10 -41t-15 -58t-18.5 -66.5q-9 -27 -14.5 -57.5t-5 -61.5t8 -60.5t25.5 -53.5q36 -49 104 -49
q39 0 72 15.5t60.5 41t49.5 57.5t39 65.5t29 65.5t20 57v1q8 26 17.5 64t17 73.5t12.5 60.5l5 25l148 -28l-5 -25.5t-12.5 -61t-17 -75t-18.5 -68.5q-26 -133 36 -208q28 -34 60 -47t50 -13q52 0 85.5 9t53.5 21t30 24.5t14 19.5q21 35 25.5 84t-2 103.5t-22 111.5
t-34 108.5t-37 94t-31.5 68.5l133 70q6 -12 26 -53.5t42.5 -101.5t43.5 -133t30 -148.5t0 -148.5t-45 -132q-90 -149 -312 -149q-23 0 -51.5 6t-58.5 20t-60 35.5t-56 53.5q-9 12 -18.5 26.5t-19.5 31.5q-60 -84 -135.5 -128.5t-163.5 -44.5q-70 0 -127.5 29t-98.5 83
q-9 13 -17 27.5t-15 28.5q-29 -33 -63 -61.5t-79 -49.5t-104.5 -33t-138.5 -12h-6q-30 0 -52.5 21t-22.5 53zM823 -336l135 135l137 -136l-136 -135zM1091 1004l-136 -136l-136 137l135 135z" />
    <glyph glyph-name="uni069A.medi" unicode="&#x69a;" horiz-adv-x="1878" 
d="M-64 74q0 32 22.5 54t53.5 22q60 0 108.5 18t86 46.5t66 64t48.5 71t32.5 67t18.5 52.5q0 3 2 4q9 32 15 55t10 37q4 17 7 27l147 -29q0 -3 -7.5 -33t-27.5 -97l-1 -6q-21 -71 -17.5 -130t32.5 -98q37 -49 104 -49q44 0 80 19.5t65.5 49.5t51.5 68t38.5 75t27 69.5
t15.5 51.5q8 30 14 51t9 35q4 16 5 27l149 -23q1 6 -3 -12.5t-10.5 -46.5t-14.5 -59t-14 -50q-11 -36 -12.5 -65.5t3 -53.5t13.5 -42t19 -31q26 -34 56.5 -48.5t53.5 -14.5q44 1 84 21t75 57q56 61 82.5 153t19.5 199l152 9q4 -65 -3 -126.5t-23 -118.5q-6 -27 4.5 -61
t36.5 -65q13 -16 35 -28.5t49.5 -21t58 -13t60.5 -4.5h79v-151h-82q-100 0 -185 32.5t-133 92.5l-10 12t-9 14l-21 -24q-55 -60 -123 -92.5t-143 -34.5h-6q-62 0 -123.5 33t-104.5 89q-6 8 -12.5 18t-12.5 20q-60 -78 -133 -119.5t-158 -41.5q-70 0 -128 28t-96 82
q-19 25 -31 52q-26 -33 -56 -62.5t-71.5 -51t-98.5 -34.5t-138 -13h-5q-31 0 -53.5 21t-22.5 53zM1162 1005l-136 -136l-136 137l135 135zM884 -313l135 135l137 -136l-136 -135z" />
    <glyph glyph-name="uni069A.fina" unicode="&#x69a;" horiz-adv-x="2957" 
d="M2726 222q18 -20 43 -34t55.5 -22t65 -12t72.5 -4v-150q-114 0 -204 28t-148 99l-7 10l-15 -20q-105 -119 -279 -119q-4 0 -8 1t-9 1q-35 1 -71.5 12.5t-72 32t-68.5 49t-61 63.5l-7 9q-11 -16 -22 -31t-25 -29q-100 -106 -259 -106q-63 0 -115 19t-94 48
q-5 -336 -183 -510.5t-517 -174.5q-21 0 -56.5 2t-80 9t-95.5 21t-102 37.5t-99.5 57.5t-87.5 83q-153 189 -84 509q14 63 36.5 128t44 118.5t37.5 88.5t18 38l136 -67l-7 -15t-18.5 -40t-25 -58.5t-27.5 -71t-26.5 -77.5t-20.5 -77q-26 -123 -13 -218.5t67 -161.5
q30 -37 68 -62.5t79 -43t82 -27.5t76 -15t61 -6.5t38 -1.5q277 0 413 137t136 415q0 53 -8.5 105.5t-21 100.5t-27 89.5t-27 72.5t-21 48.5t-8.5 18.5l134 69q1 -3 10 -21.5t22 -50t28.5 -73.5t29.5 -92q3 -7 11.5 -24t23 -39.5t35.5 -46.5t47.5 -44.5t59.5 -33.5t72 -13
q94 0 150 60q54 56 78.5 162.5t16.5 246.5l151 8q2 -48 0.5 -110.5t-13.5 -130.5q-5 -29 8 -65t40 -72q35 -42 79 -70t81 -29q59 -2 102 14t75 51q25 29 41.5 68t25.5 81.5t12.5 87t3 84.5t-3.5 73.5t-6 55.5l149 24q0 -4 3.5 -31.5t6 -71.5t1 -99.5t-10.5 -114.5
q-18 -90 30 -150zM1810 -334l135 135l137 -136l-136 -135zM2086 1020l-136 -136l-136 137l135 135z" />
    <glyph glyph-name="uni069B.init" unicode="&#x69b;" horiz-adv-x="1732" 
d="M-76 74q0 32 22.5 53.5t52.5 21.5q63 0 114.5 18.5t93 48t72.5 65t53 70t35 64t18 45.5v3q1 1 1 3q9 31 17.5 61.5t14.5 54.5t9.5 39t3.5 16l147 -33q-1 -1 -4.5 -16.5t-10 -41t-15 -58t-18.5 -66.5q-9 -27 -14.5 -57.5t-5 -61.5t8 -60.5t25.5 -53.5q36 -49 104 -49
q39 0 72 15.5t60.5 41t49.5 57.5t39 65.5t29 65.5t20 57v1q8 26 17.5 64t17 73.5t12.5 60.5l5 25l148 -28l-5 -25.5t-12.5 -61t-17 -75t-18.5 -68.5q-26 -133 36 -208q28 -34 60 -47t50 -13q52 0 85.5 9t53.5 21t30 24.5t14 19.5q21 35 25.5 84t-2 103.5t-22 111.5
t-34 108.5t-37 94t-31.5 68.5l133 70q6 -12 26 -53.5t42.5 -101.5t43.5 -133t30 -148.5t0 -148.5t-45 -132q-90 -149 -312 -149q-23 0 -51.5 6t-58.5 20t-60 35.5t-56 53.5q-9 12 -18.5 26.5t-19.5 31.5q-60 -84 -135.5 -128.5t-163.5 -44.5q-70 0 -127.5 29t-98.5 83
q-9 13 -17 27.5t-15 28.5q-29 -33 -63 -61.5t-79 -49.5t-104.5 -33t-138.5 -12h-6q-30 0 -52.5 21t-22.5 53zM690 -186l137 -136l-136 -134l-136 135zM930 -321l134 135l138 -136l-136 -134zM741 -602l136 134l136 -135l-134 -135z" />
    <glyph glyph-name="uni069B.medi" unicode="&#x69b;" horiz-adv-x="1878" 
d="M-67 74q0 32 22.5 54t53.5 22q60 0 108.5 18t86 46.5t66 64t48.5 71t32.5 67t18.5 52.5q0 3 2 4q9 32 15 55t10 37q4 17 7 27l147 -29q0 -3 -7.5 -33t-27.5 -97l-1 -6q-21 -71 -17.5 -130t32.5 -98q37 -49 104 -49q44 0 80 19.5t65.5 49.5t51.5 68t38.5 75t27 69.5
t15.5 51.5q8 30 14 51t9 35q4 16 5 27l149 -23q1 6 -3 -12.5t-10.5 -46.5t-14.5 -59t-14 -50q-11 -36 -12.5 -65.5t3 -53.5t13.5 -42t19 -31q26 -34 56.5 -48.5t53.5 -14.5q44 1 84 21t75 57q56 61 82.5 153t19.5 199l152 9q4 -65 -3 -126.5t-23 -118.5q-6 -27 4.5 -61
t36.5 -65q13 -16 35 -28.5t49.5 -21t58 -13t60.5 -4.5h79v-151h-82q-100 0 -185 32.5t-133 92.5l-10 12t-9 14l-21 -24q-55 -60 -123 -92.5t-143 -34.5h-6q-62 0 -123.5 33t-104.5 89q-6 8 -12.5 18t-12.5 20q-60 -78 -133 -119.5t-158 -41.5q-70 0 -128 28t-96 82
q-19 25 -31 52q-26 -33 -56 -62.5t-71.5 -51t-98.5 -34.5t-138 -13h-5q-31 0 -53.5 21t-22.5 53zM789 -182l137 -136l-136 -134l-136 135zM1029 -317l134 135l138 -136l-136 -134zM840 -598l136 134l136 -135l-134 -135z" />
    <glyph glyph-name="uni069B.fina" unicode="&#x69b;" horiz-adv-x="2957" 
d="M2726 222q18 -20 43 -34t55.5 -22t65 -12t72.5 -4v-150q-114 0 -204 28t-148 99l-7 10l-15 -20q-105 -119 -279 -119q-4 0 -8 1t-9 1q-35 1 -71.5 12.5t-72 32t-68.5 49t-61 63.5l-7 9q-11 -16 -22 -31t-25 -29q-100 -106 -259 -106q-63 0 -115 19t-94 48
q-5 -336 -183 -510.5t-517 -174.5q-21 0 -56.5 2t-80 9t-95.5 21t-102 37.5t-99.5 57.5t-87.5 83q-153 189 -84 509q14 63 36.5 128t44 118.5t37.5 88.5t18 38l136 -67l-7 -15t-18.5 -40t-25 -58.5t-27.5 -71t-26.5 -77.5t-20.5 -77q-26 -123 -13 -218.5t67 -161.5
q30 -37 68 -62.5t79 -43t82 -27.5t76 -15t61 -6.5t38 -1.5q277 0 413 137t136 415q0 53 -8.5 105.5t-21 100.5t-27 89.5t-27 72.5t-21 48.5t-8.5 18.5l134 69q1 -3 10 -21.5t22 -50t28.5 -73.5t29.5 -92q3 -7 11.5 -24t23 -39.5t35.5 -46.5t47.5 -44.5t59.5 -33.5t72 -13
q94 0 150 60q54 56 78.5 162.5t16.5 246.5l151 8q2 -48 0.5 -110.5t-13.5 -130.5q-5 -29 8 -65t40 -72q35 -42 79 -70t81 -29q59 -2 102 14t75 51q25 29 41.5 68t25.5 81.5t12.5 87t3 84.5t-3.5 73.5t-6 55.5l149 24q0 -4 3.5 -31.5t6 -71.5t1 -99.5t-10.5 -114.5
q-18 -90 30 -150zM1857 -244l137 -136l-136 -134l-136 135zM2097 -379l134 135l138 -136l-136 -134zM1908 -660l136 134l136 -135l-134 -135z" />
    </font>
</defs>
</svg>
